вход на сайт

Имя пользователя :
Пароль :

Восстановление пароля Регистрация
Бессонная ночь / Nuit blanche (Фредерик Жарден, боевик, триллер, 2011) [BDRip 1080p, Одноголосый (закадровый) + Оригинал]
Рейтинг:
(голосов: 1)



[img]{THEME}/images/logopost.png[/img]



Бессонная ночь / Nuit blanche

Год выпуска: 2011
Страна: Франция, Бельгия, Люксембург
Производство: Chic Films
Жанр: боевик, триллер

Режиссёр: Фредерик Жарден
В ролях: Томер Сислей, Джои Старр, Жюльен Буасселье Серж Рябукин, Лорен Стокер, Сами Сегир, Доминик Беттенфельд, Адель Беншериф, Бироль Унел, Лиззи Брошер

Перевод: Одноголосый (закадровый) + Оригинал
Субтитры: нет
Описание: ▼«Грязный полицейский» по имени Винсент совместно с напарником совершает дерзкое, вооруженное ограбление наркокурьеров, в результате в их руки попадает сумка с десятью килограммами кокаина. Но как оказывается, наркотики принадлежат влиятельному главарю мафии, владельцу ночного клуба по имени Хосе, который берет сына Винсента в заложники, требуя в обмен за него похищенный кокаин. Предстоящая ночь, кажется, самой длинной в жизни Винсента и, возможно, даже последняя…
6.75
6.4


Качество: BDRip 1080p
Продолжительность: 01:42:35

Формат: MKV
Видео кодек: AVC
Аудио кодек: AC3, DTS
Видео: 1920 x1 040 (16:9), ~8380 Kbps, 23.976 fps, 0.175 bit/pixels
Аудио: Русский: AC3, 6ch, 448 kbps
Аудио (2): Французский: DTS, 6ch, 775 kbps
MediaInfo: ▼Общее
Уникальный идентификатор : 238290728735665031545622647987596249217 (0xB3451FFF9E7AC13283232EF85B0D4881)
Полное имя : D:VideoNuit.Blanche.2011x264.BDRip.1080p.mkv
Формат : Matroska
Версия формата : Version 2
Размер файла : 6,87 Гбайт
Продолжительность : 1 ч. 42 м.
Общий поток : 9594 Кбит/сек
Дата кодирования : UTC 2012-03-31 22:38:45
Программа кодирования : mkvmerge v5.4.0 (Piper) built on Mar 10 2012 13:34:39
Библиотека кодирования : libebml v1.2.3 + libmatroska v1.3.0

Видео
Идентификатор : 1
Формат : AVC
Формат/Информация : Advanced Video Codec
Профиль формата : [email protected]
Параметр CABAC формата : Да
Параметр ReFrames формата : 4 кадра
Идентификатор кодека : V_MPEG4/ISO/AVC
Продолжительность : 1 ч. 42 м.
Битрейт : 8380 Кбит/сек
Ширина : 1920 пикселей
Высота : 1040 пикселей
Соотношение сторон : 16:9
Частота кадров : 23,976 кадра/сек
Цветовое пространство : YUV
Субдискретизация насыщенности : 4:2:0
Битовая глубина : 8 бит
Тип развёртки : Прогрессивная
Бит/(Пиксели*Кадры) : 0.175
Размер потока : 5,88 Гбайт (85%)
Заголовок : Nuit blanche (Бессонная ночь) 2011
Библиотека кодирования : x264 core 120 r2146 bcd41db
Настройки программы : cabac=1 / ref=4 / deblock=1:0:0 / analyse=0x3:0x113 / me=umh / subme=7 / psy=1 / psy_rd=1.00:0.15 / mixed_ref=1 / me_range=16 / chroma_me=1 / trellis=1 / 8x8dct=1 / cqm=0 / deadzone=21,11 / fast_pskip=0 / chroma_qp_offset=-3 / threads=12 / sliced_threads=0 / nr=0 / decimate=1 / interlaced=0 / bluray_compat=0 / constrained_intra=0 / bframes=3 / b_pyramid=2 / b_adapt=1 / b_bias=0 / direct=1 / weightb=1 / open_gop=0 / weightp=2 / keyint=250 / keyint_min=23 / scenecut=40 / intra_refresh=0 / rc_lookahead=40 / rc=2pass / mbtree=1 / bitrate=8380 / ratetol=1.0 / qcomp=0.60 / qpmin=0 / qpmax=69 / qpstep=4 / cplxblur=20.0 / qblur=0.5 / ip_ratio=1.40 / aq=1:1.00
Язык : French
Default : Да
Forced : Нет

Аудио #1
Идентификатор : 2
Формат : AC-3
Формат/Информация : Audio Coding 3
Расширение режима : CM (complete main)
Идентификатор кодека : A_AC3
Продолжительность : 1 ч. 42 м.
Вид битрейта : Постоянный
Битрейт : 448 Кбит/сек
Каналы : 6 каналов
Расположение каналов : Front: L C R, Side: L R, LFE
Частота : 48,0 КГц
Битовая глубина : 16 бит
Метод сжатия : С потерями
Размер потока : 329 Мбайт (5%)
Заголовок : Russian AC3 448 kbps
Язык : Russian
Default : Да
Forced : Нет

Аудио #2
Идентификатор : 3
Формат : DTS
Формат/Информация : Digital Theater Systems
Идентификатор кодека : A_DTS
Продолжительность : 1 ч. 42 м.
Вид битрейта : Постоянный
Битрейт : 755 Кбит/сек
Каналы : 6 каналов
Расположение каналов : Front: L C R, Side: L R, LFE
Частота : 48,0 КГц
Битовая глубина : 24 бит
Метод сжатия : С потерями
Размер потока
4bea0ce57e2844c79b0b9fcef7e2a29eb3f0898cБессонная ночь / Nuit blanche (Фредерик Жарден, боевик, триллер, 2011) [BDRip 1080p, Одноголосый (закадровый) + Оригинал] Бессонная ночь / Nuit blanche (Фредерик Жарден, боевик, триллер, 2011) [BDRip 1080p, Одноголосый (закадровый) + Оригинал] " />

Аплоадер: Админ, дата: 8-04-2012, 20:22, торрент скачан: 359 раз

Понравилась раздача? Посмотрите эти:
  • Погнали! / Getaway (Кортни Соломон, боевик, криминал, 2013) [BDRip 1080p, П ...
  • Византия / Byzantium (Нил Джордан, Фэнтези, триллер, драма, 2012) [BDRip 10 ...
  • Заклятие / The Conjuring (Джеймс Ван, ужасы, триллер, 2013) [BDRip 720р, Ду ...
  • Заклятие / The Conjuring (Джеймс Ван, ужасы, триллер, 2013) [BDRip 1080p, Д ...
  • Исходный код / Source Code (Дункан Джонс, фантастика, боевик, триллер, драм ...
  • Перелом / Fracture (Грегори Хоблит, Триллер, драма, криминал, детектив, 200 ...
  • Ворон / The Raven (Джеймс МакТиг, Триллер, детектив, 2012) [BDRip 1080p, Ду ...
  • Возвращение героя / The Last Stand (Ким Чжи-ун, Боевик, триллер, криминал, ...
  • [3D] Президент Линкольн: Охотник на вампиров / Abraham Lincoln: Vampire Hun ...
  • Толстяк на ринге / Here Comes the Boom (Фрэнк Корачи, Боевик, комедия, 2012 ...
  • Суррогат / The Sessions (Бен Луин, Драма, 2012) [BDRip-AVC, Профессиональны ...
  • Ошибка телохранителя / The Girl from the Naked Eye (Дэвид Рен, боевик, трил ...
  • Думай, как мужчина / Think Like a Man (Тим Стори, Мелодрама, комедия, 2012) ...
  • Драйв / Drive (Николас Виндинг Рёфн, боевик, триллер, драма, криминал, 2011 ...
  • Профессионал / Killer Elite (Гэри МакКендри, боевик, 2011) [BDRip-AVC, Проф ...
  • Образец 47 / Marvel One-Shot: Item 47 (Луис Д’Эспозито, короткометражка, фа ...
  • Безумные мелодии: Кажется я видел котика / Looney Tunes: I Tawt I Taw а Pud ...
  • Заражение / Contagion (Стивен Содерберг, Фантастика, 2011) [BDRip 1080p, Пр ...
  • Последняя любовь на Земле / Perfect Sense (Дэвид МакКензи, фантастика, драм ...
  • Бессонная ночь / Nuit blanche (Фредерик Жарден, Боевик, 2011) [BDRip 720p, ...
  • Лето. Одноклассники. Любовь / LOL (Лиза Азуэлос, Драма, мелодрама, комедия, ...
  • Невероятный Халк / The Incredible Hulk (Луи Летерье, фантастика, боевик, тр ...
  • Петля времени / Looper (Райан Джонсон, Фантастика, боевик, триллер, кримина ...
  • Бессонная ночь / Nuit blanche (Фредерик Жарден,боевик, триллер, 2011) [HDRi ...
  • Бессонная ночь / Nuit blanche (Фредерик Жарден, Боевик, Триллер, 2011) [HDR ...
  • Информация
    Посетители, находящиеся в группе Гости, не могут оставлять комментарии к данной публикации.