вход на сайт

Имя пользователя :
Пароль :

Восстановление пароля Регистрация
Спаун / Spawn (Марк А.З. Диппе, Ужасы, боевик, триллер, фэнтези, 1997) [BDRip 1080р, Профессиональный (многоголосый, закадровый) + Авторский +Оригинал + Субтитры]
Рейтинг:
(голосов: 1)



[img]{THEME}/images/logopost.png[/img]



Спаун / Spawn
«Born in darkness. Sworn to justice.»

Год выпуска: 1997
Страна: США
Производство: New Line Cinema
Жанр: Ужасы, боевик, триллер, фэнтези

Режиссёр: Марк А.З. Диппе
В ролях: Джон Легуизамо, Тереза Рэндл, Майкл Дж. Уайт, Мартин Шин, Мелинда Кларк, Д. Б. Суини, Никол Уильямсон, Мико Хьюз, Майкл Пападжон, Робиа ЛаМорте, Джон Котрэн мл., Тони Хейни, Дэррил Уоррен, Крис Коппола, Майк Акрави, Кэролайн Гибсон, Джей Капуто, Джек Колман, Марк Робинсон, Лора Степп, Тодд МакФарлэйн, Энтони Дженовезе

Перевод: Профессиональный (многоголосый, закадровый) + Авторский (Гаврилов) +Оригинал
Субтитры: Есть
Описание: ▼Во время выполнения очередного задания наемник Эл Симмонс, подставленный заказчиком, погибает страшной смертью и отправляется прямиком в ад. Тамошний властитель предлагает Элу возглавить его армию в обмен на возможность в последний раз увидеть жену. Эл соглашается и возвращается на землю, где полным ходом идет подготовка к битве между добром и злом.
6.682
5.00


Качество: BDRip 1080р
Продолжительность: 01:36:22

Формат: MKV
Видео кодек: AVC
Аудио кодек: AC3
Видео: 1 920 x 1 040 (16:9), ~9 290 Kbps, 23.976 fps, 0.194 bit/pixels
Аудио: Русский многоголосый AC3, 6 ch, 384 Кбит/с 48,0 КГц 6 канала(ов)
Аудио (2): Русский - Гаврилов AC3, 6 ch, 448 Кбит/с 48,0 КГц 6 канала(ов)
Аудио (3): Английский AC3, 6 ch, 448 Кбит/с 48,0 КГц 6 канала(ов)
MediaInfo: ▼General
Полное имя : E:Мои ФильмыSpaun.1997.x264.BDRip.1080p-kinozal.tv-HD..mkv
Формат : Matroska
Размер файла : 7.12 GiB
Продолжительность : 1h 36mn
Общий поток : 10.6 Mbps
Название фильма : =kinozal.tv-HD=
Дата кодирования : UTC 2010-06-17 06:28:27
Программа кодирования : mkvmerge v3.1.0 (Happy up here) built on Jan 19 2010 12:09:24
Библиотека кодирования : libebml v0.7.9 + libmatroska v0.8.1

Video
Идентификатор : 1
Формат : AVC
Формат/Информация : Advanced Video Codec
Профайл формата : [email protected]
Параметры CABAC формата : Yes
Параметры ReFrames формата : 4 frames
Режим смешивания : Container [email protected]
Идентификатор кодека : V_MPEG4/ISO/AVC
Продолжительность : 1h 36mn
Битрейт : 9 290 Kbps
Ширина : 1 920 pixels
Высота : 1 040 pixels
Соотношение кадра : 16:9
Частота кадров : 23.976 fps
ColorSpace : YUV
ChromaSubsampling : 4:2:0
BitDepth/String : 8 bits
Тип развёртки : Progressive
Бит/(Пиксели*Кадры) : 0.194
Размер потока : 6.11 GiB (86%)
Библиотека кодирования : x264 core 98 r1629 2e81ce1
Настройки программы : cabac=1 / ref=4 / deblock=1:0:0 / analyse=0x3:0x133 / me=umh / subme=7 / psy=1 / psy_rd=1.00:0.00 / mixed_ref=1 / me_range=16 / chroma_me=1 / trellis=1 / 8x8dct=1 / cqm=0 / deadzone=21,11 / fast_pskip=0 / chroma_qp_offset=-2 / threads=12 / sliced_threads=0 / nr=0 / decimate=1 / interlaced=0 / constrained_intra=0 / bframes=3 / b_pyramid=2 / b_adapt=1 / b_bias=0 / direct=1 / weightb=1 / weightp=2 / keyint=250 / keyint_min=25 / scenecut=40 / intra_refresh=0 / rc_lookahead=40 / rc=2pass / mbtree=1 / bitrate=9290 / ratetol=1.0 / qcomp=0.60 / qpmin=10 / qpmax=51 / qpstep=4 / cplxblur=20.0 / qblur=0.5 / ip_ratio=1.40 / aq=1:1.00
Язык : English

Audio #1
Идентификатор : 2
Формат : AC-3
Формат/Информация : Audio Coding 3
Format_Settings_ModeExtension : CM (complete main)
Идентификатор кодека : A_AC3
Продолжительность : 1h 36mn
Вид битрейта : Constant
Битрейт : 384 Kbps
Канал(ы) : 6 channels
Расположение каналов : Front: L C R, Side: L R, LFE
Частота : 48.0 KHz
Размер потока : 265 MiB (4%)
Заголовок : MVO
Язык : Russian

Audio #2
Идентификатор : 3
Формат : AC-3
Формат/Информация : Audio Coding 3
Format_Settings_ModeExtension : CM (complete main)
Идентификатор кодека : A_AC3
Продолжительность : 1h 36mn
Вид битрейта : Constant
Битрейт : 448 Kbps
Канал(ы) : 6 channels
Расположение каналов : Front: L C R, Side: L R, LFE
Частота : 48.0 KHz
Размер потока : 309 MiB (4%)
Заголовок : AVO (Gav
a3d1a9449c0ca2d75e89c93fe127648214adb8b4Спаун / Spawn (Марк А.З. Диппе, Ужасы, боевик, триллер, фэнтези, 1997) [BDRip 1080р, Профессиональный (многоголосый, закадровый) + Авторский +Оригинал + Субтитры] Спаун / Spawn (Марк А.З. Диппе, Ужасы, боевик, триллер, фэнтези, 1997) [BDRip 1080р, Профессиональный (многоголосый, закадровый) + Авторский +Оригинал + Субтитры] " />

Аплоадер: Админ, дата: 8-04-2012, 18:28, торрент скачан: 359 раз

Понравилась раздача? Посмотрите эти:
  • Жизнь прекрасна / La Vita è bella (Роберто Бениньи, драма, мелодрама, комед ...
  • Заложница / Taken (Пьер Морель, Боевик, триллер, криминал, 2008) [BDRip-AVC ...
  • Мальчишник: Часть III / The Hangover Part III (Тодд Филлипс, комедия, 2013) ...
  • Мальчишник: Часть III / The Hangover Part III (Тодд Филлипс, комедия, 2013) ...
  • Тело Дженнифер / Jennifers Body (Карин Кусама / Karyn Kusama, Ужасы, комеди ...
  • [3D] Сайлент Хилл 2 / Silent Hill: Revelation 3D (Майкл Дж. Бассетт, Ужасы, ...
  • Суррогат / The Sessions (Бен Луин, Драма, 2012) [BDRip-AVC, Профессиональны ...
  • Красивая Жизнь / Как разобраться с делами /Taking Care of Business (Артур Х ...
  • Зеркала 2 / Mirrors 2 (Виктор Гарсия / Víctor García, ужасы, триллер, детек ...
  • Привидение / Призрак / Ghost (Джерри Цукер, фэнтези, триллер, драма, мелодр ...
  • Одноклассники / Grown Ups (Дэннис Дуган / Dennis Dugan, комедия, 2010) [BDR ...
  • Руины / The Ruins (Картер Смит, ужасы, триллер, 2008) [BDRip-AVC, Профессио ...
  • Спаун / Spawn (Марк А.З. Диппе, фантастика, боевик, триллер, ужасы, 1997) [ ...
  • Спаун / Spawn (Марк А.З. Диппе, фантастика, боевик, триллер, ужасы, 1997) [ ...
  • Спаун / Отродие / Spawn (Марк Э. З. Диппе, фэнтези, боевик, триллер, 1997) ...
  • Спаун (Режиссёрская версия) / Spawn (Directors cut) (Марк А.З. Диппе, фэнте ...
  • Спаун [Режиссёрская версия] / Spawn [Directors cut] (Марк А.З. Диппе, фэнте ...
  • Спаун [Режиссёрская версия] / Spawn [Directors cut] (Марк А.З. Диппе, фэнте ...
  • Снайпер / Sniper (Луис Ллоса, боевик,триллер,драма, 1992) [DVDRip-AVC, Про ...
  • Спаун [Режиссерская версия] / Spawn [Directors Cut] (Марк А.З. Диппе, фэнте ...
  • Ворон / The Crow (Алекс Пройас, фэнтези, боевик, триллер, 1994) [BDRip 720p ...
  • Боб Марли / Marley (Кевин МакДональд, Документальный, биография, музыка, 20 ...
  • Спаун (Отродье) / Spawn (Марк Диппе, Фантастика,ужасы, боевик ,1997) [HDRip ...
  • Спаун / Spawn (Марк А.З. Диппе, фантастика, боевик, триллер, ужасы, 1997) [ ...
  • Идентификация / Identity (Даг Лайман,триллер, детектив, 2003) [BDRip 720p, ...
  • Информация
    Посетители, находящиеся в группе Гости, не могут оставлять комментарии к данной публикации.