вход на сайт

Имя пользователя :
Пароль :

Восстановление пароля Регистрация
Банда Келли / Ned Kelly (Грегор Джордан, Боевик, Криминал, Приключения, Вестерн, Биография, 2003) [BDRip 720p, Профессиональный (многоголосый, закадровый) + Оригинал + Субтитры]
Рейтинг:
(голосов: 1)



[img]{THEME}/images/logopost.png[/img]



Банда Келли / Ned Kelly
«The British Empire branded them as outlaws. The oppressed called them heroes.»

Год выпуска: 2003
Страна: США, Франция, Великобритания, Австралия
Производство: Studio Canal
Жанр: Боевик, Криминал, Приключения, Вестерн, Биография

Режиссёр: Грегор Джордан
В ролях: Хит Леджер, Орландо Блум, Джеффри Раш, Наоми Уоттс, Джоэл Эдгертон, Лоуренс Кинлан, Фил Барантини, Керри Кондон, Крис МакКвейд, Эмили Браунинг

Перевод: Профессиональный (многоголосый, закадровый) [Лицензия] + Оригинал
Субтитры: Русские, Английские
Описание: ▼Выходец из бедной семьи ирландских эмигрантов, сосланных в Австралию, Келли испытал на своей шкуре несправедливость колониальных властей и жесткость полицейских. Сколотив банду, куда вошли его родной брат Дэн и двое друзей — Джо и Стив, Келли принялся грабить банки в штате и быстро стал героем народных масс. Однажды они три дня держали в страхе целый городок. За поимку Неда Келли была назначена награда в 8 тысяч фунтов, но разбойникам постоянно удавалось скрыться…
7.121
6.40


Качество: BDRip 720p
Продолжительность: 01:49:53

Формат: MKV
Видео кодек: AVC
Аудио кодек: AC3, DTS
Видео: 1280 x 544 (2.35:1), 23.98fps, 4175 kb/s, 0.250 bit/pixels
Аудио: (Rus): AC3, 448 kb/s (6 ch)
Аудио: (Eng): DTS, 1536 kb/s (6 ch)
MediaInfo: ▼Общее
Уникальный идентификатор : 251372903660793000454047674388714608784 (0xBD1CA9054737F78A90E13FD3108FD890)
Полное имя : D:МусорNed.Kelly.2003.720p.BluRay.Rus.Eng.mkv
Формат : Matroska
Версия формата : Version 2
Размер файла : 4,71 Гбайт
Продолжительность : 1 ч. 49 м.
Общий поток : 6133 Кбит/сек
Дата кодирования : UTC 2012-04-06 10:49:47
Программа кодирования : mkvmerge v5.4.0 (Piper) built on Mar 10 2012 13:34:39
Библиотека кодирования : libebml v1.2.3 + libmatroska v1.3.0

Видео
Идентификатор : 1
Формат : AVC
Формат/Информация : Advanced Video Codec
Профиль формата : [email protected]
Параметр CABAC формата : Да
Параметр ReFrames формата : 5 кадров
Идентификатор кодека : V_MPEG4/ISO/AVC
Продолжительность : 1 ч. 49 м.
Битрейт : 4175 Кбит/сек
Ширина : 1280 пикселей
Высота : 544 пикселя
Соотношение сторон : 2,35:1
Частота кадров : 23,976 кадра/сек
Цветовое пространство : YUV
Субдискретизация насыщенности : 4:2:0
Битовая глубина : 8 бит
Тип развёртки : Прогрессивная
Бит/(Пиксели*Кадры) : 0.250
Размер потока : 3,11 Гбайт (66%)
Библиотека кодирования : x264 core 120 r2120 0c7dab9
Настройки программы : cabac=1 / ref=5 / deblock=1:0:0 / analyse=0x3:0x133 / me=umh / subme=7 / psy=1 / psy_rd=1.00:0.00 / mixed_ref=1 / me_range=16 / chroma_me=1 / trellis=1 / 8x8dct=1 / cqm=0 / deadzone=21,11 / fast_pskip=0 / chroma_qp_offset=-2 / threads=12 / sliced_threads=0 / nr=0 / decimate=1 / interlaced=0 / bluray_compat=0 / constrained_intra=0 / bframes=3 / b_pyramid=2 / b_adapt=2 / b_bias=0 / direct=3 / weightb=1 / open_gop=0 / weightp=2 / keyint=250 / keyint_min=23 / scenecut=40 / intra_refresh=0 / rc_lookahead=50 / rc=2pass / mbtree=1 / bitrate=4175 / ratetol=1.0 / qcomp=0.60 / qpmin=0 / qpmax=69 / qpstep=4 / cplxblur=20.0 / qblur=0.5 / ip_ratio=1.40 / aq=1:1.00
Default : Да
Forced : Нет

Аудио #1
Идентификатор : 2
Формат : AC-3
Формат/Информация : Audio Coding 3
Расширение режима : CM (complete main)
Идентификатор кодека : A_AC3
Продолжительность : 1 ч. 49 м.
Вид битрейта : Постоянный
Битрейт : 448 Кбит/сек
Каналы : 6 каналов
Расположение каналов : Front: L C R, Side: L R, LFE
Частота : 48,0 КГц
Битовая глубина : 16 бит
Метод сжатия : С потерями
Размер потока : 352 Мбайт (7%)
Заголовок : MVO
Язык : Russian
Default : Да
Forced : Нет

Аудио #2
Идентификатор : 3
Формат : DTS
Формат/Информация : Digital Theater Systems
Идентификатор кодека : A_DTS
Продолжительность : 1 ч. 49 м.
Вид битрейта : Постоянный
Битрейт : 1510 Кбит/сек
Каналы : 6 каналов
Расположение каналов : Front: L C R, Side: L R, LFE
Частота : 4
2b77cd6f4fbac70d8becce839eeef13bceade9f2Банда Келли / Ned Kelly (Грегор Джордан, Боевик, Криминал, Приключения, Вестерн, Биография, 2003) [BDRip 720p, Профессиональный (многоголосый, закадровый) + Оригинал + Субтитры] Банда Келли / Ned Kelly (Грегор Джордан, Боевик, Криминал, Приключения, Вестерн, Биография, 2003) [BDRip 720p, Профессиональный (многоголосый, закадровый) + Оригинал + Субтитры] " />

Аплоадер: Админ, дата: 8-04-2012, 11:45, торрент скачан: 359 раз

Понравилась раздача? Посмотрите эти:
  • Мэрайа Мунди и шкатулка Мидаса / The Adventurer: The Curse of the Midas Box ...
  • Джобс: Империя соблазна / jOBS (Джошуа Майкл Штерн, драма, биография, 2013) ...
  • Погнали! / Getaway (Кортни Соломон, боевик, криминал, 2013) [BDRip 1080p, П ...
  • Погнали! / Getaway (Кортни Соломон, боевик, криминал, 2013) [BDRip-AVC, Про ...
  • Иллюзия обмана / Now You See Me [Extended Cut] (Луи Летерье, триллер, крими ...
  • Лавлэйс / Lovelace (Роб Эпштейн, Джеффри Фридман, драма, биография, 2013) [ ...
  • Больше чем мёд / More Than Honey (документальный, 2012) [BDRip 720p, Профес ...
  • Летучий отряд Скотланд-Ярда / The Sweeney (Ник Лав, Боевик, драма, криминал ...
  • Рикошет / Ricochet (Ник Гомез, драма, детектив, 2011) [BDRip-AVC, Профессио ...
  • Возвращение героя / The Last Stand (Ким Чжи-ун, Боевик, триллер, криминал, ...
  • Ангелы Чарли / Charlies Angels (МакДжи, Боевик, триллер, комедия, криминал, ...
  • Банда Келли / Ned Kelly (Грегор Джордан, боевик, криминал, приключения, вес ...
  • Суррогат / The Sessions (Бен Луин, Драма, 2012) [BDRip-AVC, Профессиональны ...
  • Ошибка телохранителя / The Girl from the Naked Eye (Дэвид Рен, боевик, трил ...
  • Думай, как мужчина / Think Like a Man (Тим Стори, Мелодрама, комедия, 2012) ...
  • Банда Келли / Ned Kelly (Грегор Джордан, боевик, криминал, приключения, вес ...
  • Образец 47 / Marvel One-Shot: Item 47 (Луис Д’Эспозито, короткометражка, фа ...
  • Эд Вуд / Ed Wood (Тим Бёртон, драма, комедия, биография, 1994) [BDRip-AVC, ...
  • Безумные мелодии: Кажется я видел котика / Looney Tunes: I Tawt I Taw а Pud ...
  • Немыслимое / Unthinkable (Грегор Джордан, триллер, драма, 2009) [BDRip 720p ...
  • Заражение / Contagion (Стивен Содерберг, Фантастика, 2011) [BDRip 1080p, Пр ...
  • Бульвар спасения / Salvation Boulevard (Джордж Рэтлифф, Боевик, триллер, др ...
  • Павшая империя / Hirokin (Алехо Мо-Сан, фантастика, боевик, драма, приключе ...
  • Банда Келли / Ned Kelly (Грегор Джордан / Gregor Jordan, 2003, Вестерн / Др ...
  • Банда Келли / Ned Kelly (Грегор Джордан,боевик, криминал, приключения, вест ...
  • Информация
    Посетители, находящиеся в группе Гости, не могут оставлять комментарии к данной публикации.