вход на сайт

Имя пользователя :
Пароль :

Восстановление пароля Регистрация
Мужчины в большом городе 2 / Mannerherzen... und die ganz ganz grosse Liebe (Саймон Верховен, комедия, 2011) [BDRip 720p, Дубляж + Немецкий]
Рейтинг:
(голосов: 1)



[img]{THEME}/images/logopost.png[/img]



Мужчины в большом городе 2 / Mannerherzen... und die ganz ganz grosse Liebe

Год выпуска: 2011
Страна: Германия
Выпущено:Wiedemann & Berg Filmproduktion
Жанр:комедия

Режиссёр: Саймон Верховен
В главных ролях:Тиль Швайгер, Флориан Дэвид Фитц, Кристиан Ульмен, Юстус фон Донаньи, Надя Уль, Паскуале Алеарди, Йоханнес Алльмайер, Томас Бадинг, Майкл Бэрал, Оли Бигальке и др.

Перевод: Дубляж + Немецкий
Субтитры:нету

О фильме: Сюжет комедии показывает разных по характеру и роду деятельности мужчин. Один из них — хозяин кафе и будущий папа, второй — безработный, третий музыкальный продюсер и бабник, а четвертый разводится. Чего именно хотят мужчины — неизвестно. Ясно только, что все они весьма схожи в своем стремлении к счастью и любви.



IMDB: рейтинг6.0/10 (291 votes)
КиноПоиск: рейтинг 6.7/10 (675 голосов)


MediaInfo ▼Text
General
Unique ID : 247079436939890444867938151401690646670 (0xB9E1C4C4930BC07DB65AB65C6A7A488E)
Complete name : /Torrents/home/alekseim/data/Muzhchiny.v.bolshom.gorode.2.2011.D.BDRip.720p.mkv
Format : Matroska
Format version : Version 2
File size : 3.71 GiB
Duration : 1h 52mn
Overall bit rate : 4 729 Kbps
Movie name : Muzhchiny.v.bolshom.gorode.2.2011.D.BDRip.720p.ELEKTRI4KA -by sstonecold-
Encoded date : UTC 2012-03-22 17:41:07
Writing application : mkvmerge v5.2.0 (I cant explain) built on Dec 18 2011 18:12:03
Writing library : libebml v1.2.3 + libmatroska v1.3.0

Video
ID : 1
Format : AVC
Format/Info : Advanced Video Codec
Format profile : [email protected]
Format settings, CABAC : Yes
Format settings, ReFrames : 5 frames
Codec ID : V_MPEG4/ISO/AVC
Duration : 1h 52mn
Bit rate : 2 741 Kbps
Width : 1 280 pixels
Height : 544 pixels
Display aspect ratio : 2.35:1
Frame rate : 24.000 fps
Color space : YUV
Chroma subsampling : 4:2:0
Bit depth : 8 bits
Scan type : Progressive
Bits/(Pixel*Frame) : 0.164
Stream size : 2.15 GiB (58%)
Title : Muzhchiny.v.bolshom.gorode.2.2011.D.BDRip.720p.ELEKTRI4KA -by sstonecold-
Writing library : x264 core 122 r2183 c522ad1
Encoding settings : cabac=1 / ref=5 / deblock=1:-1:-1 / analyse=0x3:0x133 / me=umh / subme=7 / psy=1 / psy_rd=1.00:0.15 / mixed_ref=1 / me_range=16 / chroma_me=1 / trellis=1 / 8x8dct=1 / cqm=0 / deadzone=21,11 / fast_pskip=0 / chroma_qp_offset=-3 / threads=12 / sliced_threads=0 / nr=0 / decimate=1 / interlaced=0 / bluray_compat=0 / constrained_intra=0 / bframes=3 / b_pyramid=2 / b_adapt=1 / b_bias=0 / direct=3 / weightb=1 / open_gop=0 / weightp=2 / keyint=240 / keyint_min=24 / scenecut=40 / intra_refresh=0 / rc_lookahead=40 / rc=crf / mbtree=1 / crf=20.0 / qcomp=0.60 / qpmin=10 / qpmax=51 / qpstep=4 / ip_ratio=1.40 / aq=1:1.00
Language : German
Default : Yes
Forced : Yes

Audio #1
ID : 2
Format : AC-3
Format/Info : Audio Coding 3
Mode extension : CM (complete main)
Codec ID : A_AC3
Duration : 1h 52mn
Bit rate mode : Constant
Bit rate : 384 Kbps
Channel(s) : 6 channels
Channel positions : Front: L C R, Side: L R, LFE
Sampling rate : 48.0 KHz
Bit depth : 16 bits
Compression mode : Lossy
Stream size : 308 MiB (8%)
Language : Russian
Default : Yes
Forced : No

Audio #2
ID : 3
Format : DTS
Format/Info : Digital Theater Systems
Codec ID : A_DTS
Duration : 1h 52mn
Bit rate mode : Constant
Bit rate : 1 510 Kbps
Channel(s) : 6 channels
Channel positions : Front: L C R, Side: L R, LFE
Sampling rate : 48.0 KHz
Bit depth : 24 bits
Compression mode : Lossy
Stream size : 1.18 GiB (32%)
Language : German
Default : No
Forced : No
Качество: BDRip 720p
Продолжительность: 01:52:19

Формат: MKV
Видео кодек: AVC
Аудио кодек: AC3 + DTS
Видео: 1280x544 (2.35:1), AVC, 24.000 fps, 2 74 kbps, 0.16 bit/pixel
Аудио #1: Russian: 48.0 KHz, Audio Coding 3, 6 channels (Front: L C R, Side: L R, LFE), 384 Kbps|Дубляж (лицензия)|
Аудио #2: German: 48.0 KHz, Digital Theater Systems, 6 channels (Front: L C R, Side: L R,
7be19de1706d4cc16b86830207151f185c11f276Мужчины в большом городе 2 / Mannerherzen... und die ganz ganz grosse Liebe (Саймон Верховен, комедия, 2011) [BDRip 720p, Дубляж + Немецкий] Мужчины в большом городе 2 / Mannerherzen... und die ganz ganz grosse Liebe (Саймон Верховен, комедия, 2011) [BDRip 720p, Дубляж + Немецкий] " />

Аплоадер: Админ, дата: 24-03-2012, 17:00, торрент скачан: 359 раз

Понравилась раздача? Посмотрите эти:
  • Весенние надежды / Hope Springs (Дэвид Фрэнкел, Драма, мелодрама, комедия, ...
  • Толстяк на ринге / Here Comes the Boom (Фрэнк Корачи, Боевик, комедия, 201 ...
  • Мужчины в большом городе / Mannerherzen (Саймон Верховен, комедия, 2009) [D ...
  • Мужчины в большом городе / Mannerherzen (Саймон Верховен, комедия, 2009) [D ...
  • Мужчины в большом городе / Mannerherzen (Саймон Верховен / Simon Verhoeven, ...
  • Мужчины в большом городе / Mannerherzen (Саймон Верховен, комедия, 2009) [B ...
  • Мужчины в большом городе 2 / Männerherzen... und die ganz ganz große Liebe ...
  • Дети шпионов 4D / Spy Kids: All the Time in the World in 4D (Роберт Родриге ...
  • Мальчишник 2: Из Вегаса в Бангкок / The Hangover Part II (Тодд Филлипс, ком ...
  • Значит, война / This Means War (МакДжи, боевик, мелодрама, комедия, 2012) [ ...
  • «Старый» Новый год / New Years Eve (Гэрри Маршалл, мелодрама, комедия, 2011 ...
  • Проект X: Дорвались / Project X (Нима Нуризаде, комедия, 2012) [BDRip 720p, ...
  • Джок / Jock (Дункан МакНили, мультфильм, комедия, приключения, семейный, 20 ...
  • «Весёлые» каникулы / Get the Gringo (Адриан Грюнберг, Боевик, комедия, 2012 ...
  • Ворон / The Raven (Джеймс МакТиг, Триллер, детектив, 2012) [BDRip 720p, Дуб ...
  • Медальон / Stolen (Саймон Уэст, Боевик, триллер, 2012) [BDRip 720p, Дубляж, ...
  • Мужчины в большом городе 2 / Mannerherzen... und die ganz ganz grosse Liebe ...
  • Мужчины в большом городе 2 / Männerherzen... und die ganz ganz grosse Liebe ...
  • Мужчины в большом городе 2 / Männerherzen... und die ganz ganz große Liebe ...
  • Мужчины в большом городе 2 / Männerherzen... und die ganz ganz große Liebe ...
  • Информация
    Посетители, находящиеся в группе Гости, не могут оставлять комментарии к данной публикации.