вход на сайт

Имя пользователя :
Пароль :

Восстановление пароля Регистрация
PBS: Природа – Гималаи / PBS: Nature – The Himalayas (Крис Морган, Документальный, 2011) [ВDRip 1080р, Профессиональный (Одноголосый закадровый) + Оригинал]
Рейтинг:
(голосов: 1)



[img]{THEME}/images/logopost.png[/img]



PBS: Природа – Гималаи/ PBS: Nature – The Himalayas

Год выпуска: 2011
Страна: США
Производство: PBS: Nature
Жанр: Документальный

Режиссёр: Крис Морган
Ведущие: Отсутствуют

Перевод: Одноголосый закадровый | студия "Омикрон" + Оригинал
Субтитры: Есть, английские

Описание: Гималаи определяют только в превосходных эпитетах. Они не поддаются описанию и пониманию, в то же время учат нас огромной мощи и величию природы. Родившиеся в ледниковый период, они формируют высочайшую горную цепь в мире, протянувшеюся по Азии на протяжении двух тысяч миль. Сами горы считаются священными. Это горы, от которых захватывает дух!..

Качество: BDRip 1080p
Продолжительность: 00:53:02

Формат: MKV
Главы: Нет
Видео кодек: X264
Аудио кодек: AC3
Видео: 1920*1080 (16:9) 23.970 fps ~11.0 Mbps avg 0.450 bit/pix
Аудио: 48 kHz/16-bit, AC3, 3.2 (L,R) ch,~640.00 kbps avg - Rus
Аудио: 48 kHz/16-bit, AC3, 2/0 (L,R) ch,~640.00 kbps avg - Eng
Аудио: 48 kHz/16-bit, AC3, 2/0 (L,R) ch,~384.00 kbps avg - Eng

MediaInfo ▼
General
Unique ID : 181148892258481252560729200697126085612 (0x884801F20768EF74BB92B81D4B6AE3EC)
Complete name : D:ФильмыPBS.Nature.Himalayas.2011.1080p.Bluray.Rus.Eng.mkv
Format : Matroska
Format version : Version 2
File size : 4.77 GiB
Duration : 53mn 0s
Overall bit rate : 12.9 Mbps
Encoded date : UTC 2012-11-26 14:14:35
Writing application : mkvmerge v4.9.1 (Ich will) сборка от Jul 11 2011 23:53:15
Writing library : libebml v1.2.1 + libmatroska v1.1.1
Video
ID : 1
Format : AVC
Format/Info : Advanced Video Codec
Format profile : [email protected]
Format settings, CABAC : Yes
Format settings, ReFrames : 4 frames
Codec ID : V_MPEG4/ISO/AVC
Duration : 53mn 0s
Bit rate : 11.0 Mbps
Width : 1 920 pixels
Height : 1 080 pixels
Display aspect ratio : 16:9
Frame rate mode : Constant
Frame rate : 23.976 fps
Color space : YUV
Chroma subsampling : 4:2:0
Bit depth : 8 bits
Scan type : Progressive
Bits/(Pixel*Frame) : 0.221
Stream size : 4.06 GiB (85%)
Writing library : x264 core 125 r2200 999b753
Encoding settings : cabac=1 / ref=4 / deblock=1:-3:-3 / analyse=0x3:0x113 / me=umh / subme=10 / psy=1 / psy_rd=1.00:0.00 / mixed_ref=1 / me_range=32 / chroma_me=1 / trellis=2 / 8x8dct=1 / cqm=0 / deadzone=21,11 / fast_pskip=0 / chroma_qp_offset=-2 / threads=6 / lookahead_threads=1 / sliced_threads=0 / nr=0 / decimate=1 / interlaced=0 / bluray_compat=0 / constrained_intra=0 / bframes=10 / b_pyramid=2 / b_adapt=2 / b_bias=0 / direct=3 / weightb=1 / open_gop=0 / weightp=2 / keyint=250 / keyint_min=23 / scenecut=40 / intra_refresh=0 / rc_lookahead=40 / rc=crf / mbtree=0 / crf=18.0 / qcomp=0.60 / qpmin=0 / qpmax=51 / qpstep=4 / vbv_maxrate=50000 / vbv_bufsize=62500 / crf_max=0.0 / nal_hrd=none / ip_ratio=1.40 / pb_ratio=1.30 / aq=1:0.80
Language : English
Default : Yes
Forced : No
Audio #1
ID : 2
Format : AC-3
Format/Info : Audio Coding 3
Mode extension : CM (complete main)
Format settings, Endianness : Big
Codec ID : A_AC3
Duration : 53mn 0s
Bit rate mode : Constant
Bit rate : 640 Kbps
Channel(s) : 6 channels
Channel positions : Front: L C R, Side: L R, LFE
Sampling rate : 48.0 KHz
Bit depth : 16 bits
Compression mode : Lossy
Stream size : 243 MiB (5%)
Language : Russian
Default : Yes
Forced : No
Audio #2
ID : 3
Format : AC-3
Format/Info : Audio Coding 3
Mode extension : CM (complete main)
Format settings, Endianness : Big
Codec ID : A_AC3
Duration : 53mn 0s
Bit rate mode : Constant
Bit rate : 640 Kbps
Channel(s) : 6 channels
Channel positions : Front: L C R, Side: L R, LFE
Sampling rate : 48.0 KHz
Bit depth : 16 bits
Compression mode : Lossy
Stream size : 243 MiB (5%)
Language : English
Default : No
Forced : No
Audio #3
ID : 4
Format : AC-3
Format/Info : Audio Coding 3
Mode extension : CM (complete main)
Format settings, Endianness : Big
Codec ID : A_AC3
Duration : 53mn 0s
Bit rate mode : Constant
Bit rate : 384 Kbps
Cha
dc074c4e95b55b47ef06ba34a323296071ea77d4PBS: Природа – Гималаи / PBS: Nature – The Himalayas (Крис Морган, Документальный, 2011) [ВDRip 1080р, Профессиональный (Одноголосый закадровый) + Оригинал] PBS: Природа – Гималаи / PBS: Nature – The Himalayas (Крис Морган, Документальный, 2011) [ВDRip 1080р, Профессиональный (Одноголосый закадровый) + Оригинал] " />

Аплоадер: Админ, дата: 20-01-2013, 23:18, торрент скачан: 359 раз

Понравилась раздача? Посмотрите эти:
  • Пастырь / Priest (Скотт Чарльз Стюарт, ужасы, фантастика, боевик, триллер, ...
  • Ледяной / The Iceman (Ариэль Вромен, драма, криминал, биография, 2013) [BDR ...
  • Ночь с Бет Купер / I Love You, Beth Cooper (Крис Коламбус, Комедия, 2009) [ ...
  • Погоня / Abduction (Джон Синглтон, боевик, триллер, драма, детектив, 2011) ...
  • Железная леди / The Iron Lady (Филлида Ллойд, драма, биография, история, 20 ...
  • UFC The Ultimate 100 Knockouts - PPV [MMA,2013, HDTVRip 720p]
  • Джекпот / Arme Riddere (Магнус Мартенс, Боевик, комедия, криминал, 2011) [B ...
  • Мартовские иды / The Ides of March (Джордж Клуни / George Clooney, драма, 2 ...
  • Обряд / The Rite (Микаэль Хафстрем, ужасы, триллер, драма, 2011) [BDRip-AVC ...
  • Обряд / The Rite (Микаэль Хафстрем, ужасы, триллер, драма, 2011) [BDRip-AVC ...
  • Неизвестный / Unknown (Жауме Серра / Jaume Collet-Serra, триллер, драма, де ...
  • Мачо и ботан / 21 Jump Street (Фил Лорд, Крис Миллер, боевик, комедия, 2012 ...
  • Пираньи 3DD / Piranha 3DD (Джон Гулажер, ужасы, триллер, комедия, 2012) [BD ...
  • Красные огни / Red Lights (Родриго Кортес, Ужасы, триллер, драма, 2012) [BD ...
  • BBC: Большой Барьерный риф (с 1 по 3 из 3) / Great Barrier Reef (Джеймс Бр ...
  • Красные огни / Red Lights (Родриго Кортес, триллер, драма, детектив, 2012) ...
  • Чемпионат Европы 2012 / 1/2 финала / Германия - Италия / Спорт 1 HD [Футбо ...
  • Chelsea - Season Review 2011-12 / Челси - Обзор Сезона 2011-12 [ Футбол, 20 ...
  • Mylene Farmer / Du Temps [2011, Pop, HDTVRip]
  • Mylene Farmer / Bleu Noir [2011, Pop, HDTVRip]
  • Информация
    Посетители, находящиеся в группе Гости, не могут оставлять комментарии к данной публикации.