вход на сайт

Имя пользователя :
Пароль :

Восстановление пароля Регистрация
Небесные охотники. Мир стрекоз / Libellen. Die Himmelsjaeger (Курт Мюндл, Документальный, 2010) [HDTVRip 720p, Профессиональный + Оригинал]
Рейтинг:
(голосов: 1)



[img]{THEME}/images/logopost.png[/img]



Небесные охотники. Мир стрекоз / Libellen. Die Himmelsjaeger

Год выпуска: 2010
Страна: Австрия
Производство: ORF, Power of Earth Production
Жанр: Документальный

Режиссёр: Курт Мюндл | Kurt Mündl

Перевод: 1 - Профессиональный (полное дублирование)
2 - Оригинал (Немецкий)
Субтитры: Отсутствуют

Описание:
Это одна из самых удачных форм жизни на нашей планете. Они появились сотни миллионов лет назад, еще до динозавров. Они - мастера высшего пилотажа и при этом беспощадные хищники. Их внешний вид и жизненный цикл настолько необычны, что они вполне могли бы быть выходцами из другого мира. Ученые дали им звучные имена. Некоторые из них сверкают как расплавленный металл, другие кажутся созданными из цветных стекол и эмали. Это - стрекозы... небесные охотники.

Качество: HDTVRip
Продолжительность: 00:46:41

Формат: MKV
Видео кодек: H.264
Аудио кодек: AC3
Видео: 1280x720 (16:9), 50.000 fps, H.264 ~3 397 kbps avg, 0.074 bit/pixel
Аудио #1: 48 kHz, AC3, 2(L R)ch, ~192.00 kbps avg | Профессиональный (полное дублирование)
Аудио #2: 48 kHz, AC3, 2(L R)ch, ~192.00 kbps avg | Оригинал (Немецкий)
MediaInfo ▼Complete name : Nebesnye.oxotniki.Mir.strekoz.2010.x264.HDTVRip(720p).mkv
Format : Matroska
Format version : Version 2
File size : 1.23 GiB
Duration : 46mn 41s
Overall bit rate : 3 782 Kbps
Encoded date : UTC 2012-07-02 20:27:23
Writing application : mkvmerge v3.2.0 (Beginnings) built on Feb 12 2010 16:46:17
Writing library : libebml v0.7.9 + libmatroska v0.8.1
Video
ID : 1
Format : AVC
Format/Info : Advanced Video Codec
Format profile : [email protected]
Format settings, CABAC : Yes
Format settings, ReFrames : 4 frames
Codec ID : V_MPEG4/ISO/AVC
Duration : 46mn 41s
Bit rate : 3 397 Kbps
Width : 1 280 pixels
Height : 720 pixels
Display aspect ratio : 16:9
Frame rate : 50.000 fps
Color space : YUV
Chroma subsampling : 4:2:0
Bit depth : 8 bits
Scan type : Progressive
Bits/(Pixel*Frame) : 0.074
Stream size : 1.08 GiB (88%)
Writing library : x264 core 119 r2106 07efeb4
Encoding settings : cabac=1 / ref=2 / deblock=1:-1:-1 / analyse=0x3:0x113 / me=hex / subme=6 / psy=1 / psy_rd=1.00:0.15 / mixed_ref=1 / me_range=16 / chroma_me=1 / trellis=1 / 8x8dct=1 / cqm=0 / deadzone=21,11 / fast_pskip=1 / chroma_qp_offset=-3 / threads=12 / sliced_threads=0 / nr=0 / decimate=1 / interlaced=0 / bluray_compat=0 / constrained_intra=0 / bframes=3 / b_pyramid=2 / b_adapt=1 / b_bias=0 / direct=1 / weightb=1 / open_gop=0 / weightp=1 / keyint=250 / keyint_min=25 / scenecut=40 / intra_refresh=0 / rc_lookahead=30 / rc=2pass / mbtree=1 / bitrate=3397 / ratetol=1.0 / qcomp=0.60 / qpmin=0 / qpmax=69 / qpstep=4 / cplxblur=20.0 / qblur=0.5 / ip_ratio=1.40 / aq=1:1.00
Default : No
Forced : No
Audio #1
ID : 2
Format : AC-3
Format/Info : Audio Coding 3
Mode extension : CM (complete main)
Codec ID : A_AC3
Duration : 46mn 41s
Bit rate mode : Constant
Bit rate : 192 Kbps
Channel(s) : 2 channels
Channel positions : Front: L R
Sampling rate : 48.0 KHz
Bit depth : 16 bits
Compression mode : Lossy
Stream size : 64.1 MiB (5%)
Title : nabasnye.oxotniki
Language : Russian
Default : Yes
Forced : Yes
Audio #2
ID : 3
Format : AC-3
Format/Info : Audio Coding 3
Mode extension : CM (complete main)
Codec ID : A_AC3
Duration : 46mn 41s
Bit rate mode : Constant
Bit rate : 192 Kbps
Channel(s) : 2 channels
Channel positions : Front: L R
Sampling rate : 48.0 KHz
Bit depth : 16 bits
Compression mode : Lossy
Stream size : 64.1 MiB (5%)
Title : libellen
Language : German
Default : No
Forced : No


69cb0bbf87ad4f494c11b65f6516439da194b24dНебесные охотники. Мир стрекоз / Libellen. Die Himmelsjaeger (Курт Мюндл, Документальный, 2010) [HDTVRip 720p, Профессиональный + Оригинал] Небесные охотники. Мир стрекоз / Libellen. Die Himmelsjaeger (Курт Мюндл, Документальный, 2010) [HDTVRip 720p, Профессиональный + Оригинал] " />

Аплоадер: Админ, дата: 21-08-2012, 11:13, торрент скачан: 359 раз

Понравилась раздача? Посмотрите эти:
  • Четвертый вид / The Fourth Kind (Олатунде Осунсанми, ужасы, фантастика, 200 ...
  • Чемпионат Испании 2012-13 / 34-й тур / Обзор Тура / НТВ+ [06.05.2013, 720p, ...
  • UFC The Ultimate 100 Knockouts - PPV [MMA,2013, HDTVRip 720p]
  • Чемпионат Мира по хоккею 2013 / Четвертьфинал / Россия - США / 1 HD [Хокке ...
  • Смерть на похоронах / Death at a Funeral (Нил ЛаБут, комедия, 2010) [BDRip ...
  • Водитель / The Driver (Уолтер Хилл, Боевик, триллер, драма, криминал, 1978) ...
  • Геркулес / Hercules (Рон Клементс, Джон Маскер, Мультфильм, 1997 г.)[HDTVRi ...
  • Чаббчаббы спасают Рождество / The Chubbchubbs Save Xmas (Коуди Камерон, мул ...
  • Далеко-далеко / Far and Away (Рон Ховард, драма, мелодрама, приключения, ве ...
  • Скорость жизни / Discovery - Speed of life (Филип Лотт, Дональд Шульц, доку ...
  • Экстрасенс / The Awakening (Ник Мерфи, ужасы, триллер, 2011) [BDRip 720p, Д ...
  • Пейзажи времени / TimeScapes: The Movie (Том Лоу, документальный, видовой, ...
  • Ворон / The Raven (Джеймс МакТиг, Триллер, детектив, 2012) [BDRip 720p, Дуб ...
  • [NG] Растения - монстры (Поразительные растения) / Sex, Drugs and Plants (A ...
  • Футбольный клуб / Чемпионат Европы 2012 / НТВ+ [Футбол, 08.06.2012, HDTVRip ...
  • Чемпионат Европы 2012 / 1/4 финала / Чехия - Португалия / Спорт 1 HD [Футбо ...
  • Чемпионат Европы 2012 / 1/2 финала / Португалия - Испания / Спорт 1 HD [Фу ...
  • Чемпионат Европы 2012 / 1/2 финала / Германия - Италия / Спорт 1 HD [Футбо ...
  • Чемпионат Европы 2012 / Финал / Испания - Италия / Спорт 1 HD [Футбол, 01. ...
  • Все голы Евро-2012 [Футбол,2012, HDTVRip]
  • Формула 1. Сезон 2012. Этап 13 из 20. Гран-При Италии, Квалификация. [2012 ...
  • Mylene Farmer / Du Temps [2011, Pop, HDTVRip]
  • Mylene Farmer / Bleu Noir [2011, Pop, HDTVRip]
  • PBS: Природа – Гималаи / PBS: Nature – The Himalayas (Крис Морган, Докумен ...
  • The Dream Team - NBA TV Documentary [Баскетбол,13.06.2012, HDTVRip/720p, MP ...
  • Информация
    Посетители, находящиеся в группе Гости, не могут оставлять комментарии к данной публикации.