вход на сайт

Имя пользователя :
Пароль :

Восстановление пароля Регистрация
Путешествие на край Вселенной / Journey to the Edge of the Universe (Явар Аббас Документальный, Научно-популярный, 2008) [BDRip - 720p, Профессиональный (одноголосый, дублированный))]
Рейтинг:
(голосов: 1)



[img]{THEME}/images/logopost.png[/img]



Путешествие на край Вселенной / Journey to the Edge of the Universe

Год выпуска: 2008
Страна: США
Производство: National Geographic
Жанр: Документальный, Научно-популярный

Режиссёр: Явар Аббас
Ведущие: Отсутствуют

Перевод: Профессиональный (одноголосый, дублированный)
Субтитры: Нет

Описание: Это путешествие увлекает нас к истокам зарождения жизни, Столпам Мироздания, давая возможность заглянуть далеко за облака космической пыли, туда, где рождаются огромные звезды, даря Вселенной свой свет, а может быть и жизнь.

Качество: BDRip - 720p
Продолжительность: 01:30:33

Формат: MKV
Главы: нет
Видео кодек: AVC
Аудио кодек: AC3
Видео: 1276 x 720 (1.772) at 29.970 fps 3 881 Kbps
Аудио№1: 48 kHz, Dolby Digital 5.1, Front: L C R, Surround: L R, LFE, 448 Kbps Rus
Аудио№2: 48 kHz, Dolby Digital 5.1, Front: L C R, Surround: L R, LFE, 448 Kbps Eng

MediaInfo ▼
Format : Matroska
File size : 3.08 GiB
Duration : 1h 30mn
Overall bit rate : 4 874 Kbps
Writing application : mkvmerge v4.5.0 (Speed of Light) built on Feb 1 2011 02:10:32
Writing library : libebml v1.2.0 + libmatroska v1.1.0
Video
ID : 1
Format : AVC
Format/Info : Advanced Video Codec
Format profile : [email protected]
Format settings, CABAC : Yes
Format settings, ReFrames : 6 frames
Muxing mode : Container [email protected]
Codec ID : V_MPEG4/ISO/AVC
Duration : 1h 30mn
Bit rate : 3 881 Kbps
Width : 1 276 pixels
Height : 720 pixels
Display aspect ratio : 16:9
Frame rate : 29.970 fps
Resolution : 24 bits
Colorimetry : 4:2:0
Scan type : Progressive
Bits/(Pixel*Frame) : 0.141
Stream size : 2.45 GiB (80%)
Writing library : x264 core 118 r2085 8a62835
Encoding settings : cabac=1 / ref=6 / deblock=1:-2:-1 / analyse=0x3:0x133 / me=umh / subme=11 / psy=1 / psy_rd=1.05:0.00 / mixed_ref=1 / me_range=32 / chroma_me=1 / trellis=2 / 8x8dct=1 / cqm=0 / deadzone=21,11 / fast_pskip=1 / chroma_qp_offset=-2 / threads=3 / sliced_threads=0 / nr=0 / decimate=1 / interlaced=0 / bluray_compat=0 / constrained_intra=0 / bframes=9 / b_pyramid=2 / b_adapt=2 / b_bias=0 / direct=3 / weightb=1 / open_gop=0 / weightp=2 / keyint=250 / keyint_min=25 / scenecut=40 / intra_refresh=0 / rc_lookahead=60 / rc=crf / mbtree=0 / crf=18.2 / qcomp=0.60 / qpmin=0 / qpmax=69 / qpstep=4 / vbv_maxrate=50000 / vbv_bufsize=62500 / crf_max=0.0 / nal_hrd=none / ip_ratio=1.30 / pb_ratio=1.20 / aq=2:1.05
Audio #1
ID : 2
Format : AC-3
Format/Info : Audio Coding 3
Codec ID : A_AC3
Duration : 1h 30mn
Bit rate mode : Constant
Bit rate : 448 Kbps
Channel(s) : 6 channels
Channel positions : Front: L C R, Surround: L R, LFE
Sampling rate : 48.0 KHz
Stream size : 290 MiB (9%)
Title : Русский
Language : Russian
Audio #2
ID : 3
Format : AC-3
Format/Info : Audio Coding 3
Codec ID : A_AC3
Duration : 1h 30mn
Bit rate mode : Constant
Bit rate : 448 Kbps
Channel(s) : 6 channels
Channel positions : Front: L C R, Surround: L R, LFE
Sampling rate : 48.0 KHz
Stream size : 290 MiB (9%)
Title : Оригинал
Text
ID : 4
Format : UTF-8
Codec ID : S_TEXT/UTF8
Codec ID/Info : UTF-8 Plain Text
Title : Оригинальные


ac1fff8b48a6c08ed121c7e0f7c0f3a4a3b0d707Путешествие на край Вселенной / Journey to the Edge of the Universe (Явар Аббас Документальный, Научно-популярный, 2008) [BDRip - 720p, Профессиональный (одноголосый, дублированный))] Путешествие на край Вселенной / Journey to the Edge of the Universe (Явар Аббас Документальный, Научно-популярный, 2008) [BDRip - 720p, Профессиональный (одноголосый, дублированный))] " />

Аплоадер: Админ, дата: 16-08-2012, 17:57, торрент скачан: 359 раз

Понравилась раздача? Посмотрите эти:
  • Запретная любовь / The Edge of Love (Джон Мэйбери, Драма, мелодрама, военны ...
  • Зубная фея 2 / Tooth Fairy 2 (Алекс Замм, комедия, семейный, 2012) [BDRip 7 ...
  • Убить Боно / Killing Bono (Ник Хэмм, комедия, 2010) [BDRip 720p, Профессион ...
  • Персонаж / Stranger Than Fiction (Марк Форстер, Комедия, драма, фантастика, ...
  • Выпускной / Prom (Джо Нуссбаум, драма, мелодрама, комедия, 2011) [BDRip-AVC ...
  • Команда «А» / The A-Team (Джо Карнахан, боевик, триллер, комедия, приключен ...
  • Вальгалла: Сага о викинге / Valhalla Rising (Николас Виндинг Рёфн, боевик, ...
  • Повторяющие / Repeaters (Карл Бессай, фантастика, боевик, триллер, драма, к ...
  • [3D] Глаз ребенка / Childs Eye (Оксид Пан, ужасы, 2010) [BDRip, Дублированн ...
  • Путешествие на край Вселенной / Journey to the Edge of the Universe (720p H ...
  • Исходный код / Source Code (Дункан Джонс, фантастика, боевик, триллер, 2011 ...
  • Такси 2 / Taxi 2 (Жерар Кравчик, боевик, комедия, криминал, 2000) [BDRip 72 ...
  • Пейзажи времени / TimeScapes: The Movie (Том Лоу, документальный, видовой, ...
  • BBC: Большой Барьерный риф (с 1 по 3 из 3) / Great Barrier Reef (Джеймс Бр ...
  • [Discovery] Механизмы организма / The Body Machine (Робин Бикнелл, Документ ...
  • [BBC] Планета Земля / Planet Earth // Сезон 1, эпизод с 1 по 11 (из 11) (До ...
  • Mylene Farmer / Du Temps [2011, Pop, HDTVRip]
  • Mylene Farmer / Bleu Noir [2011, Pop, HDTVRip]
  • PBS: Природа – Гималаи / PBS: Nature – The Himalayas (Крис Морган, Докумен ...
  • Путешествие на край Вселенной / Journey To The Edge Of The Universe (Явар А ...
  • Путешествие на край Вселенной / Journey to the Edge of the Universe [2008 г ...
  • National Geographic Путешествие на край Вселенной / Journey to the Edge of ...
  • Madonna / Girl Gone Wild [2012, Pop, HDTV]
  • The Dream Team - NBA TV Documentary [Баскетбол,13.06.2012, HDTVRip/720p, MP ...
  • Десять казней Египетских. Первые кары / Secrets Of The 10 Plagues. The Firs ...
  • Информация
    Посетители, находящиеся в группе Гости, не могут оставлять комментарии к данной публикации.