вход на сайт

Имя пользователя :
Пароль :

Восстановление пароля Регистрация
Пейзажи времени / TimeScapes: The Movie (Том Лоу, документальный, видовой, релаксация, 2012) [BDRip 720p, Музыкальное сопровождение]
Рейтинг:
(голосов: 1)



[img]{THEME}/images/logopost.png[/img]



Пейзажи времени / TimeScapes: The Movie

Год выпуска: 2012
Страна: Новая Зеландия
Производство: Southwest Light Ltd.
Жанр: документальный, видовой, релаксация

Режиссёр: Том Лоу
В ролях: Природа

Перевод: Музыкальное сопровождение
Субтитры: Отсутствуют

Описание: TimeScapes это дебютный фильм оператора и режиссера Тома Лоу. В фильме вы увидите потрясающие пейзажи, людей и дикую природу американского Юго-Запада в замедленной съемке. Лоу провел 2 года колеся по стране на своем пикапе Toyota в поисках подходящих сцен для фильма.


Качество: BDRip 720p
Продолжительность: 00:48:22

Формат: MKV
Видео кодек: AVC
Аудио кодек: AC3
Видео: 1280x688 (1.85:1), 23.976 fps, 4999 Кбит/сек, 0.226 bit/pixel
Аудио: 48 kHz, AC3, 2 ch, ~192.00 kbps avg | Музыкальное сопровождение

MediaInfo ▼Complete name : D:РаздачиPeyzazhi.vremeni.2012.x264.BDRip.720p.Fandorin.mkv
Format : Matroska
Format version : Version 1
File size : 1.75 GiB
Duration : 48mn 21s
Overall bit rate : 5 189 Kbps
Encoded date : UTC 2012-06-03 15:28:26
Writing application : mkvmerge v2.1.0 (Another Place To Fall) built on Aug 19 2007 13:40:07
Writing library : libebml v0.7.7 + libmatroska v0.8.1
Video
ID : 1
Format : AVC
Format/Info : Advanced Video Codec
Format profile : [email protected]
Format settings, CABAC : Yes
Format settings, ReFrames : 10 frames
Codec ID : V_MPEG4/ISO/AVC
Duration : 48mn 21s
Bit rate : 4 999 Kbps
Width : 1 280 pixels
Height : 720 pixels
Display aspect ratio : 16:9
Frame rate : 23.976 fps
Color space : YUV
Chroma subsampling : 4:2:0
Bit depth : 8 bits
Scan type : Progressive
Bits/(Pixel*Frame) : 0.226
Stream size : 1.65 GiB (94%)
Title : Rip by Fandorin (Kinozal.TV)
Writing library : x264 core 98 r1649 20cbe10
Encoding settings : cabac=1 / ref=10 / deblock=1:-3:-3 / analyse=0x3:0x133 / me=umh / subme=10 / psy=1 / psy_rd=1.00:0.10 / mixed_ref=1 / me_range=48 / chroma_me=1 / trellis=2 / 8x8dct=1 / cqm=0 / deadzone=21,11 / fast_pskip=0 / chroma_qp_offset=-3 / threads=6 / sliced_threads=0 / nr=0 / decimate=1 / interlaced=0 / constrained_intra=0 / bframes=7 / b_pyramid=2 / b_adapt=2 / b_bias=0 / direct=3 / weightb=1 / weightp=2 / keyint=250 / keyint_min=25 / scenecut=40 / intra_refresh=0 / rc_lookahead=40 / rc=2pass / mbtree=1 / bitrate=4999 / ratetol=1.0 / qcomp=0.60 / qpmin=10 / qpmax=51 / qpstep=4 / cplxblur=20.0 / qblur=0.5 / ip_ratio=1.40 / aq=1:1.00
Default : Yes
Forced : No
Audio
ID : 2
Format : AC-3
Format/Info : Audio Coding 3
Mode extension : CM (complete main)
Format settings, Endianness : Big
Codec ID : A_AC3
Duration : 48mn 21s
Bit rate mode : Constant
Bit rate : 192 Kbps
Channel(s) : 2 channels
Channel positions : Front: L R
Sampling rate : 48.0 KHz
Bit depth : 16 bits
Compression mode : Lossy
Stream size : 66.4 MiB (4%)
Title : Музыка
Default : Yes
Forced : No

bf487ac8037288ba911af0a9d6ca37b7fa21eafbПейзажи времени / TimeScapes: The Movie (Том Лоу, документальный, видовой, релаксация, 2012) [BDRip 720p, Музыкальное сопровождение] Пейзажи времени / TimeScapes: The Movie (Том Лоу, документальный, видовой, релаксация, 2012) [BDRip 720p, Музыкальное сопровождение] " />

Аплоадер: Админ, дата: 4-06-2012, 21:02, торрент скачан: 359 раз

Понравилась раздача? Посмотрите эти:
  • Пейзажи времени / TimeScapes (Том Лоу, документальный, 2012) [4K Ultra HDRi ...
  • FLO / NRG [2012, Pop, Dance, MasterRip]
  • Кубок Англии 2012-2013 / Превью финала / Спорт 1 [Футбол, 09.05.2013, 720p, ...
  • UFC The Ultimate 100 Knockouts - PPV [MMA,2013, HDTVRip 720p]
  • UFC - Best Of 2012 Year In Review[MMA,2013, BDRip 540p]
  • Смерть на похоронах / Death at a Funeral (Нил ЛаБут, комедия, 2010) [BDRip ...
  • Патруль / End of Watch (Дэвид Эйр, Триллер, драма, криминал, 2012) [BDRip-A ...
  • [3D] На Глубине 3Д / Into the Deep 3D (Ховард Холл / Howard Hall, документа ...
  • [3D] Чудеса океана в 3Д / Ocean Wonderland 3D (Жан-Жак Мантелло / Jean-Jacq ...
  • [3D] Лас-Вегас в 3Д / Las Vegas 3D (Benjamin Eicher, Timo Joh. Mayer, Докум ...
  • Живые пейзажи: Дзен сад / Living Landscapes: Zen Garden (Майкл Хьюман, доку ...
  • Для чувств 2. Увлекательное путешествие в мир природы и звука / Forsenses I ...
  • Наша природа / Unsere Natur (HD Movie Production, документальный, видовой, ...
  • Белый тигр (Карен Шахназаров, военный, 2012) [BDRip 720p, Не требуется]
  • «Весёлые» каникулы / Get the Gringo (Адриан Грюнберг, Боевик, комедия, 2012 ...
  • Пейзажи времени / TimeScapes (Том Лоу, документальный, 2012) [Blu-ray 1080p ...
  • Патруль / End of Watch (Дэвид Эйр, Триллер, драма, криминал, 2012) [BDRip 7 ...
  • Чемпионат Европы 2012 / 1/4 финала / Чехия - Португалия / Спорт 1 HD [Футбо ...
  • Чемпионат Европы 2012 / 1/2 финала / Португалия - Испания / Спорт 1 HD [Фу ...
  • Чемпионат Европы 2012 / 1/2 финала / Германия - Италия / Спорт 1 HD [Футбо ...
  • Формула 1. Сезон 2012. Этап 13 из 20. Гран-При Италии, Квалификация. [2012 ...
  • Ан-Го: Дневник Инги / Un-Go: Inga-ron // (2011) [BDRip 720p, любительская ...
  • The Australian Pink Floyd Show / Live At Hammersmith Apollo 2011 [2012, Roc ...
  • Mylene Farmer / Du Temps [2011, Pop, HDTVRip]
  • Mylene Farmer / Bleu Noir [2011, Pop, HDTVRip]
  • Информация
    Посетители, находящиеся в группе Гости, не могут оставлять комментарии к данной публикации.