вход на сайт

Имя пользователя :
Пароль :

Восстановление пароля Регистрация
BBC: Суперстая (2 серии из 2) / Swarm: Natures Incredible Invasions (Megaschwaerme) (документальный, 2009) [Blu-Ray 1080i, профессиональный (одноголосый закадровый) + оригинал + субтитры]
Рейтинг:
(голосов: 1)



[img]{THEME}/images/logopost.png[/img]



BBC: Суперстая (2 серии из 2) / Swarm: Natures Incredible Invasions (Megaschwaerme)

Год выпуска: 2009
Страна: Великобритания
Производство: John Downer Productions Ltd.
Жанр: документальный
Перевод: профессиональный (одноголосый закадровый) /О.Курдюков/ + оригинал
Субтитры: Русские, английские
Описание:
Когда тысячи живых существ объединяются в единое целое, образуется супер-организм, обладающий невероятной силой. Они могут подвергнуть атаке наши запасы продовольствия, блокировать транспортные системы или даже нарушить жизненный ритм целого города. Используя сверхсовременные методы съемки, авторам этого фильма удалось заснять масштабные вторжения живых существ и то, как человеку удается им противостоять.
IMDB: 6.00 (33)
КиноПоиск: 8.457 (35)
Качество: Blu-ray BD-25 Single-Layer Disc 1080i
Продолжительность: 2 х ~ 00:52:15
Формат: BDMV
Видео кодек: MPEG-4 AVC Video
Аудио кодек: AC3, DTS-HD Master
Формат видео: 1920x1080i, (16:9), 25 fps, 22012 kbps, High Profile 4.1
Формат аудио:
Русский Dolby Digital 2.0 (256 kbps) |одноголосый, /О.Курдюков/|
English DTS-HD MA 2.0 (core: DTS, 2.0 channels, 24 bits, 1509kbps, 48kHz) |Оригинал|

BDInfo ▼
Text
DISC INFO:

Disc Title: BBC.Superstaya.(2.serii.iz.2).2009.x264.BluRay.1080i
Disc Size: 20 528 639 520 bytes
Protection: AACS
BD-Java: No
BDInfo: 0.5.6

PLAYLIST REPORT:

Name: 00001.MPLS
Length: 0:16:59 (h:m:s)
Size: 3 444 799 488 bytes
Total Bitrate: 27,04 Mbps

VIDEO:

Codec Bitrate Description
----- ------- -----------
MPEG-4 AVC Video 22012 kbps 1080i / 25 fps / 16:9 / High Profile 4.1

AUDIO:

Codec Language Bitrate Description
----- -------- ------- -----------
DTS-HD Master Audio English 1675 kbps 2.0 / 48 kHz / 1675 kbps / 16-bit (DTS Core: 2.0 / 48 kHz / 1509 kbps / 16-bit)
Dolby Digital Audio Russian 256 kbps 2.0 / 48 kHz / 256 kbps / DN -4dB

FILES:

Name Time In Length Size Total Bitrate
---- ------- ------ ---- -------------
00002.M2TS 0:00:00.000 0:00:59.960 202 635 264 27 036
00002.M2TS 0:00:59.960 0:00:59.960 202 635 264 27 036
00002.M2TS 0:01:59.920 0:00:59.960 202 63
425fc550ce99f22afaa9f32a982b1825a8b8baf0BBC: Суперстая (2 серии из 2) / Swarm: Natures Incredible Invasions (Megaschwaerme) (документальный, 2009) [Blu-Ray 1080i, профессиональный (одноголосый закадровый) + оригинал + субтитры] BBC: Суперстая (2 серии из 2) / Swarm: Natures Incredible Invasions (Megaschwaerme) (документальный, 2009) [Blu-Ray 1080i, профессиональный (одноголосый закадровый) + оригинал + субтитры] " />

Аплоадер: Админ, дата: 2-03-2012, 21:16, торрент скачан: 359 раз

Понравилась раздача? Посмотрите эти:
  • Страсти Дон Жуана / Don Jon (Джозеф Гордон-Левитт, комедия, мелодрама, 2013 ...
  • Поезда / HD Moods: Trains (Railway Produktion & Topics Entertainment, Докум ...
  • Хорошо быть тихоней / The Perks of Being a Wallflower (Стивен Чбоски, драма ...
  • [3D] Водная жизнь 3D / Water Life 3D (Документальный, 2009) [Blu-Ray Disc 1 ...
  • [3D] Дикий океан 3D / Wild Ocean 3D (Люк Крессвелл, Стив МакНиколас, Докуме ...
  • Меланхолия / Melancholia (Ларс фон Триер, фантастика, драма, 2011) [Blu-Ray ...
  • Голодный кролик атакует / Seeking Justice (Роджер Дональдсон, боевик, трилл ...
  • То, что её заводит / Turn Me On, Dammit! (Яннике Систад Якобсен, мелодрама, ...
  • Виды из Космоса / A View from Space with Heavenly Music (документальный фил ...
  • Королевство океанов / Kingdom of the Oceans / Le Peuple des Océans(Жак Клюз ...
  • Как по маслу / Butter (Джим Филд Смит, комедия, 2011) [Blu-ray Disc 1080p, ...
  • Самсара / Samsara (Рон Фрике, документальный, 2011) [Blu-ray Disk 1080p, О ...
  • Мальдивы / Maldives: Scattering Diamonds (Charlie Chu, документальный, 2009 ...
  • Океаны / Oceans (Жак Перрен, Жак Клюзо / документальный, драма, семейный / ...
  • [BBC] Океаны / Oceans (Дэниэл Бэрри, документальный, 2008) [2 Blu-Ray Disk, ...
  • BBC: Чудеса Солнечной системы (с 1 по 3 из 5) / Wonders of the Solar System ...
  • BBC: Чудеса Солнечной системы (4 и 5 часть из 5) / Wonders of the Solar Sys ...
  • [BBC] Живой мир. Суперстая / The Natural World. Superswarms // Эпизод 1-2 ( ...
  • [3D] Букашки! 3D / Bugs! 3D (Майк Сли, Документальный, 2003) [Blu-Ray Disc ...
  • Лицо со Шрамом / Scarface (Брайан Де Пальма, триллер, драма, криминал, 1983 ...
  • BBC: Живой мир - Смертоносные змеи Индии / BBC: The Natural World - One Mil ...
  • Радиоволна / Frequency (Грегори Хоблит, фантастика, триллер, драма, кримин ...
  • Ворон / The Raven (Джеймс МакТиг, триллер, детектив, 2012) [Blu-ray Disc 1 ...
  • Мечтатели / The Dreamers (Бернардо Бертолуччи, драма, мелодрама, 2003) [Blu ...
  • Дорога / The Road (Джон Хиллкоут, триллер, драма, приключения, 2009) [Blu-r ...
  • Информация
    Посетители, находящиеся в группе Гости, не могут оставлять комментарии к данной публикации.