вход на сайт

Имя пользователя :
Пароль :

Восстановление пароля Регистрация
Для чувств / Forsenses (Philipp von Kap-herr, Ivo Moring, документальный, релакс, 2009 г) [ BDRip1080i, Не требуется]
Рейтинг:
(голосов: 1)



[img]{THEME}/images/logopost.png[/img]



Для чувств / Forsenses

Год выпуска: 2009
Страна: Германия
Производство: Blu::elements
Жанр: Документальный, релакс

Режиссёр: Philipp von Kap-herr, Ivo Moring
Перевод: Не требуется.

Описание:
Симфония для глаз и слуха: первый выпуск серии blu::elements с полным использованием оптических и аккустических возможностей High Definition. Над фильмом и звуком проделана громадная работа режиссера и звукооператора..
Название говорит само за себя и обеспечивает то, что обещает: невероятно увлекательное путешествие, которое зритель проделает с удовольствием. Впечатляющие образы природы находятся в гармонии с разнообразным и красивым звуком. Будь то DVD или Blu-Ray, "Forsenses - увлекательное путешествие в природе", которое заслуженно предлагает нам отдохнуть от повседневной жизни ...

Качество: BDRip 1080i
Продолжительность: 00:57:06

Формат: MKV
Видео кодек: MPEG4/ISO/AVC
Аудио кодек: DTS
Видео: H.264, 1920x1080, 12.2 Mbps,29.970 fps, 0.197 Bits/Pixel
Аудио: DTS, 6ch(Front: L C R, Side: L R, LFE), 1510 кбит/с,48.0 KHz
"MediaInfo" ▼E:HD_VIDEOForsenses1080p.mkv
General
Unique ID : 247114012238185759477119643239099162422 (0xB9E86D763132DFB894252B8258FC5F36)
Complete name : E:HD_VIDEOForsenses1080p.mkv
Format : Matroska
Format version : Version 1
File size : 5.37 GiB
Duration : 57mn 6s
Overall bit rate : 13.5 Mbps
Movie name : =ALEXENERGO=
Encoded date : UTC 2009-10-10 15:13:20
Writing application : mkvmerge v2.5.1 (He Wasnt There) built on Feb 22 2009 18:19:47
Writing library : libebml v0.7.7 + libmatroska v0.8.1
Video #1
ID : 1
Format : AVC
Format/Info : Advanced Video Codec
Format profile : [email protected]
Format settings, CABAC : Yes
Format settings, ReFrames : 10 frames
Codec ID : V_MPEG4/ISO/AVC
Duration : 57mn 6s
Bit rate : 12.2 Mbps
Width : 1 920 pixels
Height : 1 080 pixels
Display aspect ratio : 16:9
Frame rate : 29.970 fps
Color space : YUV
Chroma subsampling : 4:2:0
Bit depth : 8 bits
Scan type : Progressive
Bits/(Pixel*Frame) : 0.197
Stream size : 4.66 GiB (87%)
Title : Forsenses1080p
Writing library : x264 core 65 r999kMod cc51047
Encoding settings : cabac=1 / ref=10 / deblock=1:-3:-3 / analyse=0x3:0x133 / me=umh / subme=9 / psy_rd=0.7:0.2 / mixed_ref=1 / me_range=24 / chroma_me=1 / trellis=1 / 8x8dct=1 / cqm=0 / deadzone=21,11 / chroma_qp_offset=-3 / threads=2 / thread_queue=2 / nr=0 / decimate=1 / mbaff=0 / bframes=6 / b_pyramid=1 / b_adapt=1 / b_bias=0 / direct=1 / wpredb=1 / keyint=250 / keyint_min=25 / scenecut=40(pre) / rc=abr / bitrate=12225 / ratetol=1.0 / qcomp=0.60 / qpmin=10 / qpmax=51 / qpstep=4 / ip_ratio=1.40 / pb_ratio=1.30 / aq=1:1.00
Language : English
Audio #2
ID : 2
Format : DTS
Format/Info : Digital Theater Systems
Codec ID : A_DTS
Duration : 57mn 6s
Bit rate mode : Constant
Bit rate : 1 510 Kbps
Channel(s) : 6 channels
Channel positions : Front: L C R, Side: L R, LFE
Sampling rate : 48.0 KHz
Bit depth : 24 bits
Compression mode : Lossy
Stream size : 617 MiB (11%)
Title : Forsenses DTS 1536 Kbps
Language : English


5ea4c534930e277c40401d8153f0ed2b32707a2f Для чувств / Forsenses (Philipp von Kap-herr, Ivo Moring, документальный, релакс, 2009 г) [ BDRip1080i, Не требуется] Для чувств / Forsenses (Philipp von Kap-herr, Ivo Moring, документальный, релакс, 2009 г) [ BDRip1080i, Не требуется] " />

Аплоадер: Админ, дата: 20-02-2012, 22:12, торрент скачан: 359 раз

Понравилась раздача? Посмотрите эти:
  • Пейзажи времени / TimeScapes (Том Лоу, документальный, 2012) [4K Ultra HDRi ...
  • Akon / Get By [2013, Hip-Hop, MasterRip 4K]
  • FLO / NRG [2012, Pop, Dance, MasterRip]
  • Eminem / Rap God [2013, Rap, HDRip]
  • Havana Brown / Warrior [2013, Dance, HDRip]
  • Justin Timberlake / TKO [2013, Pop, MasterRip]
  • AC/DC / Live at Donington [1991, Hard Rock, BDRip]
  • Война невест / Bride Wars (Гари Виник, комедия, мелодрама, 2009) [ BDRip 10 ...
  • Бруно / Bruno (Саша Барон Коэн, сатира, 2009) [BDRip 1080p, дубляж, оригина ...
  • «Старый» Новый год / New Years Eve (Гэрри Маршалл, Мелодрама, 2011) [BDRip- ...
  • [3D] На Глубине 3Д / Into the Deep 3D (Ховард Холл / Howard Hall, документа ...
  • Для чувств 2. Увлекательное путешествие в мир природы и звука / Forsenses I ...
  • Схватка / The Grey (Джо Карнахан, Боевик, 2012) [BDRip 720p, Профессиональн ...
  • Запрещенная реальность (Константин Максимов, фантастика, боевик, 2009) [BDR ...
  • Пейзажи времени / TimeScapes: The Movie (Том Лоу, документальный, видовой, ...
  • «Старый» Новый год / New Years Eve (Гэрри Маршалл, мелодрама, комедия, 2011 ...
  • Матч (Андрей Малюков, Драма, спорт, 2012) [BDRip 720p, Не требуется]
  • Chelsea - Season Review 2011-12 / Челси - Обзор Сезона 2011-12 [ Футбол, 20 ...
  • The Australian Pink Floyd Show / Live At Hammersmith Apollo 2011 [2012, Roc ...
  • Mylene Farmer / Du Temps [2011, Pop, HDTVRip]
  • Mylene Farmer / Bleu Noir [2011, Pop, HDTVRip]
  • Лекции о Рунах (Кораблёв Л. Л.) (саморазвитие,лекции о научной рунологии и ...
  • PBS: Природа – Гималаи / PBS: Nature – The Himalayas (Крис Морган, Докумен ...
  • Madonna / Girl Gone Wild [2012, Pop, HDTV]
  • Десять казней Египетских. Первые кары / Secrets Of The 10 Plagues. The Firs ...
  • Информация
    Посетители, находящиеся в группе Гости, не могут оставлять комментарии к данной публикации.