вход на сайт

Имя пользователя :
Пароль :

Восстановление пароля Регистрация
[BBC] Как действуют наркотики. Марихуана / How Drugs Work. Cannabis (Научно-популярный, 2011) [HDTVRip-AVC, Любительский (одноголосый, закдровый) +Оригинал]
Рейтинг:
(голосов: 1)



[img]{THEME}/images/logopost.png[/img]



Как действуют наркотики. Марихуана / How Drugs Work. Cannabis

Страна: США
Производство: Pioneer Film & Television Productions Ltd, BBC
Год выпуска: 2011
Жанр: Научно-популярный

Режиссёр: Явар Аббас, Габриэла Полетта
Ведущие: Отсутствует
Участники: Доктор Уильям Ноткатт, курильщики марихуаны, пациенты клиники.

Перевод: Любительский (одноголосый, закдровый) +Оригинал

ОписаниеВ этой программе вы увидите, как марихуана действует на организм человека. Благодаря свидетельствам тех, кто получает удовольствие от наркотика и тех, кто попал от него в зависимость, будет показано его воздействие на мозг человека. Получив доступ к результатам научных исследований, программа попытается развеять мифы, окружающие марихуану, узнать, вызывает ли она зависимость, вредит ли она нашей памяти, и может ли она вызвать психоз.

Доп. информация
Иностранный HDTVRip (720p),добавлена русская дорожка с SATриповского релиза с любительской озвучкой от Mona Lisa.Присутствуют вшитые субтитры на Русском языке.

Mediainfo ▼Общее
Уникальный идентификатор : 240083081371288512891271996682546973926 (0xB49E51CE6180D1D090A310851C580CE6)
Полное имя.DownloadsКак действуют наркотики.2011.HDTVRip.720p.mkv
Формат : Matroska
Размер файла : 1,51 Гбайт
Продолжительность : 56 м.
Общий поток : 3792 Кбит/сек
Дата кодирования : UTC 2011-12-15 21:46:40
Программа кодирования : mkvmerge v2.1.0 (Another Place To Fall) built on Aug 19 2007 13:40:07
Библиотека кодирования : libebml v0.7.7 + libmatroska v0.8.1

Видео
Идентификатор : 1
Формат : AVC
Формат/Информация : Advanced Video Codec
Профиль формата : [email protected]
Параметр CABAC формата : Да
Параметр ReFrames формата : 3 кадры
Идентификатор кодека : V_MPEG4/ISO/AVC
Продолжительность : 56 м.
Битрейт : 3469 Кбит/сек
Ширина : 1280 пикс.
Высота : 720 пикс.
Соотношение сторон : 16:9
Частота кадров : 25,000 кадр/сек
Цветовое пространство : YUV
Подвыборка цветности : 4:2:0
Битовая глубина : 8 бит
Тип развёртки : Прогрессивная
Бит/(Пиксели*Кадры) : 0.151
Размер потока : 1,35 Гбайт (90%)
Библиотека кодирования : x264 core 80 r1376 3feaec2
Настройки программы : cabac=1 / ref=3 / deblock=1:-1:-1 / analyse=0x3:0x113 / me=hex / subme=6 / psy=1 / psy_rd=1.0:1.0 / mixed_ref=0 / me_range=16 / chroma_me=1 / trellis=1 / 8x8dct=1 / cqm=0 / deadzone=21,11 / fast_pskip=1 / chroma_qp_offset=-4 / threads=18 / sliced_threads=0 / nr=0 / decimate=1 / mbaff=0 / constrained_intra=0 / bframes=3 / b_pyramid=0 / b_adapt=2 / b_bias=0 / direct=1 / wpredb=1 / wpredp=0 / keyint=250 / keyint_min=25 / scenecut=40 / rc=2pass / mbtree=0 / bitrate=3469 / ratetol=1.0 / qcomp=0.60 / qpmin=0 / qpmax=51 / qpstep=4 / cplxblur=20.0 / qblur=0.5 / ip_ratio=1.40 / pb_ratio=1.30 / aq=1:1.10

Аудио #1
Идентификатор : 2
Формат : MPEG Audio
Версия формата : Version 1
Профиль формата : Layer 3
Режим : Joint stereo
Расширение режима : MS Stereo
Идентификатор кодека : A_MPEG/L3
Идентификатор кодека/Подсказка : MP3
Продолжительность : 56 м.
Вид битрейта : Постоянный
Битрейт : 128 Кбит/сек
Канал(ы) : 2 канала(ов)
Частота : 48,0 КГц
Метод сжатия : С потерями
Размер потока : 52,2 Мбайт (3%)
Заголовок : VO Mona Lisa
Язык : Russian

Аудио #2
Идентификатор : 3
Формат : AC-3
Формат/Информация : Audio Coding 3
Расширение режима : CM (complete main)
Идентификатор кодека : A_AC3
Продолжительность : 56 м.
Вид битрейта : Постоянный
Битрейт : 192 Кбит/сек
Канал(ы) : 2 канала(ов)
Расположение каналов : Front: L R
Частота : 48,0 КГц
Битовая глубина : 16 бит
Метод сжатия : С потерями
Задержка видео : 2 мс.
Размер потока : 78,2 Мбайт (5%)
Язык : English

Текст
Идентификатор : 4
Формат : ASS
Идентификатор кодека : S_TEXT/ASS
Идентификатор кодека/Информация : Advanced Sub Station Alpha
Метод сжатия : Без потерь
Язык : Russian


Тех. данные
Качество: HDTVRip-AVC
Продолжительность: 00:56:57 часа

Формат: MKV
Видео кодек: AVC [email protected]
Аудио кодек: MP3,
7ffec9ab6d040fa50808a68b9a74e81772b7c484[BBC] Как действуют наркотики. Марихуана / How Drugs Work. Cannabis (Научно-популярный, 2011) [HDTVRip-AVC, Любительский (одноголосый, закдровый) +Оригинал] [BBC] Как действуют наркотики. Марихуана / How Drugs Work. Cannabis (Научно-популярный, 2011) [HDTVRip-AVC, Любительский (одноголосый, закдровый) +Оригинал] " />

Аплоадер: Админ, дата: 16-12-2011, 12:48, торрент скачан: 359 раз

Понравилась раздача? Посмотрите эти:
  • [NG] Комета века / Comet of the century (документальный, 2013) [HDTVRip-AVC ...
  • Башня / The Tower (Чи-хун Ким, драма, 2012) [BDRip-AVC, Любительский (двухг ...
  • [NG] Война львов / Lion Battle Zone (документальный, 2011) [HDTVRip-AVC, Пр ...
  • Ну ты и придурок! / You Stupid Man (Брайан Барнс, мелодрама, комедия, 2002) ...
  • Чемпионат Англии 2012-2013 / 25-й тур / Обзор / Суббота / BBC Sport [2013 г ...
  • Страшно красив / Beastly (Даниел Барнз, фэнтези, драма, мелодрама, 2011) [H ...
  • Иностранный легион / La cité (Ким Нгуйен / Kim Nguyen, драма, 2010) [DVDRip ...
  • Профессионал / Killer Elite (Гэри МакКендри, боевик, 2011) [BDRip-AVC, Проф ...
  • Дьявол / Devil (Джон Эрик Даудл / John Erick Dowdle,ужасы, триллер, детекти ...
  • История игрушек: Гавайские каникулы / Toy Story: Hawaiian Vacation (Гари ...
  • Заражение / Contagion (Стивен Содерберг, Фантастика, 2011) [BDRip 1080p, Пр ...
  • Скуби-Ду: Нападение Пантазаура / Scooby-Doo: Legend of the Phantosaur (Дугл ...
  • Бессонная ночь / Nuit blanche (Фредерик Жарден, Боевик, 2011) [BDRip 720p, ...
  • Павшая империя / Hirokin (Алехо Мо-Сан, фантастика, боевик, драма, приключе ...
  • [NG] Гитлеровские лагеря смерти / Hitlers G.I. Death Camp (документальный, ...
  • Преследование / Слежка / Following (Кристофер Нолан, триллер, драма, кримин ...
  • Кубок Англии 2012-2013 / 3-й раунд / Обзор / Суббота / ITV 1 HD [2013 г., ф ...
  • [EN] Как действуют наркотики. Марихуана / How Drugs Work. Cannabis (научно- ...
  • [BBC] Как действуют наркотики. Марихуана / How Drugs Work. Cannabis (Научно ...
  • [BBC] Как действуют наркотики. Экстези / How drugs work. Ecstasy (документа ...
  • Информация
    Посетители, находящиеся в группе Гости, не могут оставлять комментарии к данной публикации.