вход на сайт

Имя пользователя :
Пароль :

Восстановление пароля Регистрация
BBC: Жизнь / BBC: Life [10 серий из 10] (Марта Холмс / Martha Holmes, Документальный, 2009) [BDRip 1080p, Одноголосый (закадровый) + Оригинал]
Рейтинг:
(голосов: 1)



[img]{THEME}/images/logopost.png[/img]



BBC: Жизнь / BBC: Life


Год выпуска: 2009
Страна: Великобритания
Производство: BBC, Discovery Channel, SKAI Co-Production
Жанр: Документальный

Режиссёр: Марта Холмс
Ведущий: Давид Аттенборо (англ.)

Перевод: Одноголосый (Закадровый)+ Оригинальная дорожка
Озвучка: Trinitron1001
Субтитры: Русские, Английские

Описание: Новый крупнобюджетный сериал о живой природе от создателей блокбастера "Планета Земля"!

Перед вами ошеломляющий и поражающий своей красотой, новыми открытиями и впечатлениями уникальный сериал о живой природе нашей планеты. Более 3000 съемочных дней, проведенных на каждом из земных континентов, беспрецедентная техника съемки, 130 невероятных и захватывающих дух историй из страниц животного мира, - все это и есть "Жизнь" - полномасштабная история животного мира, показанная такой, какой вы её еще не видели прежде.

Вы увидите, как различным живым существам удалось приспособиться к окружающему миру и бороться за выживание в нем. Многие из тех способностей, которыми они обладают, помогли человеку сделать новые открытия, а некоторые еще предстоит изучить. Но уже сегодня передовые технологии, использованные в этом фильме, позволят вам увидеть все великолепие живой природы нашей планеты в мельчайших подробностях.

Название серий:▼
1. Challenges of life / Цели жизни
2. Reptiles and amphibians / Рептилии и земноводные
3. Mammals / Млекопитающие
4. Fish / Рыбы
5. Birds / Птицы
6. Insects / Насекомые
7. Hunters and Hunted / Охотники и жертвы
8. Creatures of the Deep / Создания глубин
9. Plants / Растения
10. Primates / Приматы

IMDB: рейтинг 9.5 (570)


Качество: BDRip (1080p)
Продолжительность: 10 серий х ~00:58:30

Формат: MKV
Видео кодек: AVC
Аудио кодек: AC-3
Видео: 1920x1080 (16:9), 25 fps, 14,1 Мбит/сек avg, 0.273 bit/pixel
Аудио (рус): 48 kHz, AC-3, Front: L C R, Side: L R, LFE, ~448.00 kbps avg
Аудио (англ): 48 kHz, DTS,Front: L C R, Side: L R, LFE, ~1510 kbps avg

MediaInfo:▼
Format : Matroska
File size : 6.72 GiB
Duration : 58mn 33s
Overall bit rate : 16.4 Mbps
Encoded date : UTC 2010-02-23 20:57:17
Writing application : mkvmerge v2.9.7 (Tenderness) built on Jul 1 2009 18:43:35
Writing library : libebml v0.7.7 + libmatroska v0.8.1
Video
ID : 1
Format : AVC
Format/Info : Advanced Video Codec
Format profile : [email protected]
Format settings, CABAC : Yes
Format settings, ReFrames : 4 frames
Muxing mode : Container [email protected]
Codec ID : V_MPEG4/ISO/AVC
Duration : 58mn 33s
Bit rate : 14.1 Mbps
Nominal bit rate : 14.5 Mbps
Width : 1 920 pixels
Height : 1 080 pixels
Display aspect ratio : 16:9
Frame rate : 25.000 fps
Resolution : 24 bits
Colorimetry : 4:2:0
Scan type : Progressive
Bits/(Pixel*Frame) : 0.273
Stream size : 5.78 GiB (86%)
Title : BBC Life E01 1080p
Writing library : x264 core 80 r1373 4322f63
Encoding settings : cabac=1 / ref=4 / deblock=1:-3:-3 / analyse=0x3:0x113 / me=umh / subme=10 / psy=1 / psy_rd=1.1:0.2 / mixed_ref=1 / me_range=64 / chroma_me=1 / trellis=2 / 8x8dct=1 / cqm=2 / deadzone=21,11 / fast_pskip=0 / chroma_qp_offset=-2 / threads=6 / sliced_threads=0 / nr=0 / decimate=0 / mbaff=0 / constrained_intra=0 / bframes=3 / b_pyramid=2 / b_adapt=2 / b_bias=0 / direct=3 / wpredb=1 / wpredp=0 / keyint=250 / keyint_min=25 / scenecut=40 / rc_lookahead=60 / rc=2pass / mbtree=1 / bitrate=14463 / ratetol=1.0 / qcomp=0.60 / qpmin=10 / qpmax=51 / qpstep=4 / cplxblur=20.0 / qblur=0.5 / vbv_maxrate=50000 / vbv_bufsize=50000 / ip_ratio=1.40 / aq=2:0.80
Language : English
Audio #1
ID : 2
Format : AC-3
Format/Info : Audio Coding 3
Codec ID : A_AC3
Duration : 58mn 33s
Bit rate mode : Constant
Bit rate : 448 Kbps
Channel(s) : 6 channels
Channel positions : Front: L C R, Surround: L R, LFE
Sampling rate : 48.0 KHz
Stream size : 188 MiB (3%)
Title : AC3 5.1ch
Language : Russian
Audio #2
ID : 3
Format : DTS
Format/Info :
7fb4716c0ec89ca6e2e7062431d761be87a921a6BBC: Жизнь / BBC: Life [10 серий из 10] (Марта Холмс / Martha Holmes, Документальный, 2009) [BDRip 1080p, Одноголосый (закадровый) + Оригинал] BBC: Жизнь / BBC: Life [10 серий из 10] (Марта Холмс / Martha Holmes, Документальный, 2009) [BDRip 1080p, Одноголосый (закадровый) + Оригинал] " />

Аплоадер: Админ, дата: 11-04-2010, 16:55, торрент скачан: 359 раз

Понравилась раздача? Посмотрите эти:
  • Честь дракона / Tom yum goong (Прачья Пинкаю, боевик, триллер, драма, крим ...
  • Жизнь Пи / Life Of Pi (Энг Ли, Драма, приключения, 2012) [BDRip 1080p, Проф ...
  • Али / Ali (Майкл Манн, драма, биография, спорт, 2001) [BDRip-AVC, Профессио ...
  • Дитя человеческое / Children of Men (Альфонсо Куарон, фантастика, триллер, ...
  • Вальгалла: Сага о викинге / Valhalla Rising (Николас Виндинг Рёфн, боевик, ...
  • Роб Рой / Rob Roy (Майкл Кейтон-Джонс, боевик, драма, мелодрама, 1995) [BDR ...
  • Король говорит! / The Kings Speech (Том Хупер, драма, биография, история, 2 ...
  • Жизнь за один день / Life in a Day (Кевин МакДональд, Наталия Андреадис, Ли ...
  • Один Дома / Home Alone (Крис Коламбус, комедия, приключения, семейный, 1990 ...
  • Один дома 2: Затерянный в Нью-Йорке / Home Alone 2: Lost in New York (Крис ...
  • Скорость жизни / Discovery - Speed of life (Филип Лотт, Дональд Шульц, доку ...
  • Океаны / Océans (Жак Перрен, Жак Клюзо, документальный, 2009) [BDRip (108 ...
  • Путешествие на край Вселенной / Journey to the Edge of the Universe (Явар А ...
  • BBC: Большой Барьерный риф (с 1 по 3 из 3) / Great Barrier Reef (Джеймс Бр ...
  • Зелёная миля / The Green Mile (Фрэнк Дарабонт , драма, 1999) [BDRip 1080p, ...
  • [BBC] Жизнь / Life // (10 Серии из 10) (документальный, 2009) [BDRip / Авто ...
  • [BBC] Планета Земля / Planet Earth // Сезон 1, эпизод с 1 по 11 (из 11) (До ...
  • Mylene Farmer / Du Temps [2011, Pop, HDTVRip]
  • Mylene Farmer / Bleu Noir [2011, Pop, HDTVRip]
  • PBS: Природа – Гималаи / PBS: Nature – The Himalayas (Крис Морган, Докумен ...
  • Информация
    Посетители, находящиеся в группе Гости, не могут оставлять комментарии к данной публикации.