вход на сайт

Имя пользователя :
Пароль :

Восстановление пароля Регистрация
[NG] Атака больших кошек / Attack of the Big Cats (Эллисон П. Феликс, документальный, 2012) [HDTV 1080i, Студийный (одноголосый, закадровый)]
Рейтинг:
(голосов: 1)



[img]{THEME}/images/logopost.png[/img]



Атака больших кошек / Attack of the Big Cats

Год выпуска: 2012
Страна:США
Производство: Nat Geo WILD
Жанр: документальный

Режиссёр: Эллисон П. Феликс
Ведущие: отсутствует
Участники: Животный Мир

Перевод: Студийный (одноголосый, закадровый) Александр Гаврилин [АРК-ТВ]
Субтитры: Отсутствуют

Описание
Nat Geo WILD представляет передачу, посвященную природе жестоких представителей семейства кошачьих.


Тех.Данные
Качество: HDTV 1080i

Продолжительность: 00:44:59 часа

Формат: MPEG-TS
Видео кодек: AVC [email protected]
Аудио кодек: MPEG Layer 2
Свойства видео: 1920x1080 (16:9), 25.00 fps, AVC ~10,3 kbps avg, 0.198 bit/pixel
Свойства аудио: 48 kHz, MPEG Layer 2, 2 ch, ~192.00 kbps avg
Информация MediaInfo ▼TextОбщее
Идентификатор : 1 (0x1)
Полное имя : D:DownloadsАтака больших кошек.2012.HDTV-1080i.ts
Формат : MPEG-TS
Размер файла : 3,46 Гбайт
Продолжительность : 44 м.
Общий поток : 11,0 Мбит/сек

Видео
Идентификатор : 321 (0x141)
Идентификатор меню : 1 (0x1)
Формат : AVC
Формат/Информация : Advanced Video Codec
Профиль формата : [email protected]
Параметр CABAC формата : Да
Параметр ReFrames формата : 3 кадра
Идентификатор кодека : 27
Продолжительность : 44 м.
Битрейт : 10,3 Мбит/сек
Ширина : 1920 пикселей
Высота : 1080 пикселей
Соотношение сторон : 16:9
Частота кадров : 25,000 кадров/сек
Стандарт вещания : Component
Цветовое пространство : YUV
Субдискретизация насыщенности : 4:2:0
Битовая глубина : 8 бит
Тип развёртки : Чересстрочная
Порядок развёртки : Верхнее поле первое
Бит/(Пиксели*Кадры) : 0.198
Размер потока : 3,23 Гбайт (93%)
Основные цвета : BT.709-5, BT.1361, IEC 61966-2-4, SMPTE RP177
Характеристики трансфера : BT.709-5, BT.1361
Коэффициенты матрицы : BT.709-5, BT.1361, IEC 61966-2-4 709, SMPTE RP177

Аудио
Идентификатор : 401 (0x191)
Идентификатор меню : 1 (0x1)
Формат : MPEG Audio
Версия формата : Version 1
Профиль формата : Layer 2
Идентификатор кодека : 3
Продолжительность : 44 м.
Вид битрейта : Постоянный
Битрейт : 192 Кбит/сек
Каналы : 2 канала
Частота : 48,0 КГц
Метод сжатия : С потерями
Размер потока : 61,8 Мбайт (2%)
Язык : English




fcdd10f32f33f6d4cff76c15ea7fb408d8036e24[NG] Атака больших кошек / Attack of the Big Cats (Эллисон П. Феликс, документальный, 2012) [HDTV 1080i, Студийный (одноголосый, закадровый)] [NG] Атака больших кошек / Attack of the Big Cats (Эллисон П. Феликс, документальный, 2012) [HDTV 1080i, Студийный (одноголосый, закадровый)] " />

Аплоадер: Админ, дата: 18-02-2013, 10:24, торрент скачан: 359 раз

Понравилась раздача? Посмотрите эти:
  • Солдаты напрокат (Сергей Клишин, Дмитрий Бышов, документальный, 2013) [HDTV ...
  • Ciara feat. Nicki Minaj / Im Out [2013, R&B, HDTV 1080i]
  • Ciara / Body Party [2013, R&B, HDTV 1080i]
  • Они сражались за Родину (Сергей Бондарчук, драма, военный, история, 1975г. ...
  • [NG] Затерянная могила Ирода (Затерянная гробница царя Ирода) / Herod`s Los ...
  • Лига Чемпионов 2012-13 / Жеребьевка 1/4 финала / НТВ+ Футбол HD [Футбол, 15 ...
  • Чемпионат Испании 2012-13 / 26-й тур / Реал Мадрид - Барселона / НТВ+ Футбо ...
  • Чемпионат Италии 2012-13 / 26-й тур / Интер - Милан / Футбол HD [Футбол, 24 ...
  • Чемпионат Испании 2012-13 / 23-й тур / Реал - Севилья / НТВ+ Футбол HD [Фут ...
  • Лига Чемпионов 2012-13 / 1/8 финала / Первый матч / Арсенал - Бавария / Фут ...
  • FIFA Ballon dOr 2011 / Церемония вручения Золотого мяча ФИФА 2011 / EUROSPO ...
  • Чемпионат Испании 2012-13 / 3-й тур / Обзор матчей / Футбол HD [Футбол, 03. ...
  • Kylie Minogue / Live At Last Night of The Proms [2012, Pop, HDTVRip 1080i]
  • Rihanna / Live Rock In Rio [2011, RnB, Pop, HDTV 1080i]
  • [3D] Чемпионат Испании 2010-11 / 13-й тур / Барселона - Реал Мадрид [Футбол ...
  • Чемпионат Мира 2012 / Финал / Россия - Словакия [Хоккей, 2012, HDTV 1080i]
  • Чемпионат Европы 2012. Группа C. Испания - Италия / Uefa. Euro 2012. Group ...
  • Чемпионат Европы 2012. Группа Д. Украина - Швеция / Uefa. Euro 2012. Group ...
  • Чемпионат Европы 2012. Группа С. Ирландия - Испания / Uefa. Euro 2012. Grou ...
  • [3D] Лига Чемпионов 2011-12 / Финал / Бавария - Челси [Футбол, 19.05.2012г. ...
  • Информация
    Посетители, находящиеся в группе Гости, не могут оставлять комментарии к данной публикации.