вход на сайт

Имя пользователя :
Пароль :

Восстановление пароля Регистрация
Парад Победы. Москва. Красная Площадь / Военный парад, посвящённый 68-й годовщине Победы в Великой течественной войне (Военный парад,09/05/2013) [ HDTV 1080i, Первый HD]
Рейтинг:
(голосов: 1)



[img]{THEME}/images/logopost.png[/img]



Парад Победы
Военный парад, посвящённый 68-й годовщине Победы в Великой Отечественной войне

Страна: Россия
Производство: ОАО "1 канал"
Год выпуска/ или дата выхода в эфир: 2013
Жанр: Военный парад

Участники: Военные,ветераны,журналисты,официальные лица

Перевод:не требуется
Субтитры: отсутствуют

Описание: 9 мая Первый канал представит своим зрителям трансляцию с Красной площади в Москве, на которой пройдет торжественный военный парад, посвященный празднованию Дня Победы в Великой Отечественной войне

Качество: HDTV 1080i
Продолжительность:01:01:05

Формат: TS
Видео кодек: H.264
Аудио кодек: AС3
Свойства видео: 1920x1080 (16:9), 25 fps, H.264,12.0 mbps avg
Свойства аудио: 48 kHz, AС3, 2 ch, ~384.00 kbps avg
"Тех.данные" ▼Complete name : Военный парад на Красной площади, посвящённый 68-летию Победы_HDTV by Kaddafi.ts
Format : MPEG-TS
File size : 5.56 GiB
Duration : 1h 1mn
Overall bit rate : 13.0 Mbps
Video #305
ID : 305 (0x131)
Menu ID : 1 (0x1)
Format : AVC
Format/Info : Advanced Video Codec
Format profile : [email protected]
Format settings, CABAC : Yes
Format settings, ReFrames : 3 frames
Codec ID : 27
Duration : 1h 1mn
Bit rate : 12.0 Mbps
Width : 1 920 pixels
Height : 1 080 pixels
Display aspect ratio : 16:9
Frame rate : 25.000 fps
Standard : Component
Color space : YUV
Chroma subsampling : 4:2:0
Bit depth : 8 bits
Scan type : Interlaced
Scan order : Top Field First
Bits/(Pixel*Frame) : 0.232
Stream size : 5.12 GiB (92%)
Color primaries : BT.709-5, BT.1361, IEC 61966-2-4, SMPTE RP177
Transfer characteristics : BT.709-5, BT.1361
Matrix coefficients : BT.709-5, BT.1361, IEC 61966-2-4 709, SMPTE RP177
Audio #415
ID : 415 (0x19F)
Menu ID : 1 (0x1)
Format : AC-3
Format/Info : Audio Coding 3
Mode extension : CM (complete main)
Codec ID : 6
Duration : 1h 1mn
Bit rate mode : Constant
Bit rate : 384 Kbps
Channel(s) : 2 channels
Channel positions : Front: L R
Sampling rate : 48.0 KHz
Bit depth : 16 bits
Compression mode : Lossy
Stream size : 168 MiB (3%)
Language : Russian



d2cbd4914a4d7960cbbbf64e0eb96f55eedcd038Парад Победы. Москва. Красная Площадь / Военный парад, посвящённый 68-й годовщине Победы в Великой течественной войне (Военный парад,09/05/2013) [ HDTV 1080i, Первый HD] Парад Победы. Москва. Красная Площадь / Военный парад, посвящённый 68-й годовщине Победы в Великой течественной войне (Военный парад,09/05/2013) [ HDTV 1080i, Первый HD] " />

Аплоадер: Админ, дата: 9-05-2013, 21:41, торрент скачан: 359 раз

Понравилась раздача? Посмотрите эти:
  • Бой за звание чемпиона мира / Геннадий Головкин - Кертис Стивенс / Первый H ...
  • Чемпионат России 2013-2014 / 8-й тур / ЦСКА (Москва) - Ростов (Ростов-на-До ...
  • Чемпионат Мира 2014 / Отборочный турнир / Группа I / 10-й тур / Беларусь - ...
  • Чемпионат Англии 2012-2013 / 36-й тур / Манчестер Юнайтед - Челси / Спорт 1 ...
  • Чемпионат Испании 2012-13 / 34-й тур / Реал Мадрид - Вальядолид / НТВ+ [04. ...
  • Два парада Победы (Документальный, 2013) [SATRip, Не требуется]
  • Парад Победы. Москва. Красная Площадь (Военный парад, 09.05.2013) [HDTVRip, ...
  • Парад Победы. Москва. Красная Площадь (Россия HD, Военный парад, 09.05.2013 ...
  • Чемпионат Испании 2011-12 / 35-й тур / Барселона - Реал / Футбол HD [Футбол ...
  • NBA 2012-2013 / RS / 03.11.2012 / Denver Nuggets @ Miami Heat [Баскетбол, H ...
  • Katy Perry / Live At Rock In Rio [2011, Pop, HDTV] [1080i]
  • Голос // Выпуск 13 / Суперфинал (ТВ-шоу, 29.12.2012) [HDTV |1080i|, Не треб ...
  • Новогодний парад звезд (ТВ-шоу, 31.12.2012) [HDTV 1080i, Не требуется]
  • Первый Новогодний вечер с Максимом Галкиным и Владимиром Зеленским (ТВ-Шоу, ...
  • Melody Gardot / Mira [2012, Jazz, Acoustic, HDTV 1080i]
  • Парад Победы. Июнь 1945 (Беляев В., Венжер И., Посельский И., документальны ...
  • Фотографии./ Вторая мировая война. (Военный архив) [JPG/400х300 х 800х600/7 ...
  • Парад победы 1945 года [В цвете] (Документальный, 1945) [DVDRip, не требуе ...
  • Чемпионат Европы. Группа D. Швеция - Англия / EURO-2012. Group D. Sweden - ...
  • Бой за титул чемпиона мира по боксу в супертяжелом весе по версии IBF / Вла ...
  • Информация
    Посетители, находящиеся в группе Гости, не могут оставлять комментарии к данной публикации.