вход на сайт

Имя пользователя :
Пароль :

Восстановление пароля Регистрация
Как устроена Вселенная / How the Universe Works / 1 сезон (8 серий из 8) из 2 (Лорни Тауненд, Документальный, 2010) [BDRemux 1080p, Профессиональный (одноголосый, закадровый), Оригинал (английский)]
Рейтинг:
(голосов: 1)



[img]{THEME}/images/logopost.png[/img]



Как устроена Вселенная / How the Universe Works

Год выпуска: 2010
Страна: США
Производство: Discovery, Lola Visual Effects
Жанр: Документальный

Режиссёр: Лорни Тауненд, Питер Чинн
Ведущие: Самые прогрессивные ученые физики, химии, квантовой механики и других современных точных наук

Перевод: Профессиональный (одноголосый, закадровый), Оригинал (английский)
Субтитры: нет

Описание: Это история о создании всего в этом мире. Программа исследует, как Вселенная возникла из ничего, и как она выросла с точки незначительно меньше, чем атомные частицы, до огромного космоса.Качество: BDRemux 1080p
Продолжительность: 00:43:07 каждая серия

Формат: MKV
Главы: нет
Видео кодек: H.264
Аудио кодек: DTS
Видео: 1920x1080i, 16:9, 60 FPS, VBR ~18-23 Mbps, 60 fps ,8 bits/pixel
Аудио:
Русская дорожка: DTS 5.1 755 kbps 24bit/48kHz
Английская дорожка: DTS 5.1 1510 kbps 24bit/48kHz
MediaInfo ▼
General
Unique ID : 230708464084811336270910715142459062056 (0xAD90D57D1F1A6D2F9185792CB64F7728)
Complete name : /Как устроена Вселенная (сезон 1 из 2) (How the Universe Works) [Discovery, 2010 - ..., BDRemux 1080i]/Сезон 1 (8 из 8) [2010]/S01E01. Большой взрыв (Big Bang).mkv
Format : Matroska
Format version : Version 2
File size : 7.36 GiB
Duration : 43mn 7s
Overall bit rate mode : Variable
Overall bit rate : 24.4 Mbps
Encoded date : UTC 2012-09-14 16:05:41
Writing application : mkvmerge v5.8.0 (No Sleep / Pillow) built on Sep 2 2012 15:37:04
Writing library : libebml v1.2.3 + libmatroska v1.3.0
Video
ID : 1
Format : AVC
Format/Info : Advanced Video Codec
Format profile : [email protected]
Format settings, CABAC : Yes
Format settings, ReFrames : 3 frames
Format settings, GOP : M=3, N=15
Codec ID : V_MPEG4/ISO/AVC
Bit rate mode : Variable
Bit rate : 21.7 Mbps
Maximum bit rate : 35.0 Mbps
Width : 1 920 pixels
Height : 1 080 pixels
Display aspect ratio : 16:9
Frame rate mode : Variable
Original frame rate : 29.970 fps
Standard : NTSC
Color space : YUV
Chroma subsampling : 4:2:0
Bit depth : 8 bits
Scan type :Interlaced
Scan order : Top Field First
Title : BDRemux 1920x1080i H.264 ~21 Mbps 60 fps
Language : English
Default : Yes
Forced : No
Color primaries : BT.709
Transfer characteristics : BT.709
Matrix coefficients : BT.709
Audio #1
ID : 2
Format : DTS
Format/Info : Digital Theater Systems
Codec ID : A_DTS
Duration : 43mn 7s
Bit rate mode : Constant
Bit rate : 754 Kbps
Channel(s) : 6 channels
Channel positions : Front: L C R, Side: L R, LFE
Sampling rate : 48.0 KHz
Bit depth : 24 bits
Compression mode : Lossy
Stream size : 233 MiB (3%)
Title : DTS 5.1 755 kbps 24b/48k (неизвестный проф.)
Language : Russian
Default : Yes
Forced : No
Audio #2
ID : 3
Format : DTS
Format/Info :Digital Theater Systems
Codec ID : A_DTS
Duration : 43mn 7s
Bit rate mode : Constant
Bit rate : 1 510 Kbps
Channel(s) : 6 channels
Channel positions : Front: L C R, Side: L R, LFE
Sampling rate : 48.0 KHz
Bit depth : 24 bits
Compression mode : Lossy
Stream size : 466 MiB (6%)
Title : Original DTS 5.1 1510 kbps 24b/48k
Language : English
Default : No
Forced : No


Описание эпизодов ▼
S01E01. Большой взрыв (Big Bang) ▼
Как из ничего возникла наша Вселенная? Вы узнаете, как она разрослась из крошечной точки меньше атомной частицы до сегодняшнего безграничного космоса.
Скриншоты ▼
S01E02. Черные дыры (Black Holes). ▼
Черные дыры - самые мощные машины уничтожения во Вселенной и самая большая ее загадка. Современная астрономия доказывает, что они могут влиять на все, что мы видим.
Скриншоты ▼
S01E03. Галактики (Galaxies). ▼
Познакомьтесь с эволюцией галактик от облаков холодного газа, витавшего в вакууме 13 миллиардов лет назад, до великолепных спиралей, за которыми можно наблюдать ночью.
Скриншоты ▼
S01E04. Звезды (Stars). ▼
Посмотрите, как во Вселенной возникли звезды, как они, в свою очередь, породили новые поколения звезд и планет, как появились основные элементы, из которых зародилась жизнь.
Скриншоты ▼
S01E05.
2a6e94c7c65c1baba2a5672175f6af08cd11d07fКак устроена Вселенная / How the Universe Works / 1 сезон (8 серий из 8) из 2 (Лорни Тауненд, Документальный, 2010) [BDRemux 1080p, Профессиональный (одноголосый, закадровый), Оригинал (английский)] Как устроена Вселенная / How the Universe Works / 1 сезон (8 серий из 8) из 2 (Лорни Тауненд, Документальный, 2010) [BDRemux 1080p, Профессиональный (одноголосый, закадровый), Оригинал (английский)] " />

Аплоадер: Админ, дата: 1-09-2013, 21:45, торрент скачан: 359 раз

Понравилась раздача? Посмотрите эти:
  • Kara / Speed Up [2012, K-Pop, J-Pop, Dance, BDRemux]
  • [Discovery] Как устроена Вселенная: Черные дыры / How the Universe: Black H ...
  • [Discovery] Как устроена Вселенная: Большой взрыв / How the Universe: Big b ...
  • [Discovery] Как устроена Вселенная / How the Universe Works // Сезон 2, эпи ...
  • Нубы / Noobz (Блейк Фриман, Комедия, 2012) [BDRemux 1080p, Профессиональный ...
  • Родительский беспредел / Parental Guidance (Энди Фикмен, Комедия, семейный, ...
  • Невероятный страх перед всем / A Fantastic Fear of Everything (Крис Хопвелл ...
  • Иван Царевич и Серый Волк (Владимир Торопчин, мультфильм, семейный, 2011) [ ...
  • [BBC] Что было до большого взрыва / What Happened Before the Big Bang (Доку ...
  • Неудержимые / The Expendables (Сильвестр Сталлоне, боевик, триллер, приключ ...
  • Пол: Секретный материальчик / Расширенная версия / Paul (Грег Моттола, фант ...
  • Стыд / Shame (Стив МакКуин, драма, 2011) [BDRemux 1080p, Дублированный + Од ...
  • Бульвар страха / Rosewood Lane (Виктор Сальва, Ужасы, триллер, 2011) [BD-Re ...
  • Призрак в школе / Haunted High (Джеффри Скотт Ландо, ужасы, фантастика, 201 ...
  • Discovery: Вселенная.Большой взрыв. / The Universe. Big Bang (Документальны ...
  • [Discovery] Как работает Вселенная? Звёзды/ How the Universe works? Stars ( ...
  • [Discovery] Как работает Вселенная? / How the Universe works?(Выпусков 8 из ...
  • Как устроена Вселенная? / How the Universe works? // Сезон 1, выпуск 1-8 (и ...
  • [Discovery] Как устроена Вселенная / How the Universe works // Выпуски 1-8 ...
  • Телескоп Хаббл / IMAX - Hubble (Тони Майерс, документальный, 2010) [BDRemux ...
  • Информация
    Посетители, находящиеся в группе Гости, не могут оставлять комментарии к данной публикации.