вход на сайт

Имя пользователя :
Пароль :

Восстановление пароля Регистрация
Солдаты напрокат (Сергей Клишин, Дмитрий Бышов, документальный, 2013) [HDTV 1080p, Не требуется]
Рейтинг:
(голосов: 1)



[img]{THEME}/images/logopost.png[/img]



Солдаты напрокат


Год: 2013
Страна: Россия
Производство: Первый канал HD
Жанр: документальный

Режиссёр: Сергей Клишин, Дмитрий Бышов
Ведущие: отсутствует

Перевод: Не требуется
Субтитры: нет

Описание: Диверсанты, разведчики, снайперы, взрывники, командиры атомных подводных ракетоносцев. Они из России, они знают и умеют столько, что могут начать и выиграть небольшую войну. И они едут туда, где стреляют. Едут работать с оружием в руках. На чужой войне получают деньги за свои военные навыки. Кто они? Современные наемники, "дикие гуси"? Или они часть мирового военного бизнеса, "солдаты напрокат"?


Тех.Данные:
Качество: HDTV 1080p
Продолжительность: ~ 00:48:14 часа

Формат: Matroska-MKV-
Главы: нет
Видео кодек: AVC [email protected]
Аудио кодек: Audio Coding 3
Видео: 1920x1080 (16:9), 25 fps, AVC ~8024 kbps avg, 0.155 bit/pixel
Аудио: 48 kHz, AC3 Dolby Digital, 2/0 (L,R) ch, ~192 kbps

Информация MediaInfo ▼TextОбщее
Уникальный идентификатор : 181257607820940048805803384051056791544 (0x885CF2095755A63E959C7EFADCE84FF8)
Полное имя : E:DownloadsСолдаты напрокат.2013.HDTV.1080p.mkv
Формат : Matroska
Версия формата : Version 2
Размер файла : 2,71 Гбайт
Продолжительность : 48 м.
Режим общего битрейта : Постоянный
Общий поток : 8034 Кбит/сек
Дата кодирования : UTC 2013-11-24 11:02:13
Программа кодирования : mkvmerge v3.0.0 (Hang up your Hang-Ups) built on Jan 6 2010 22:49:38
Библиотека кодирования : libebml v0.7.9 + libmatroska v0.8.1

Видео
Идентификатор : 1
Формат : AVC
Формат/Информация : Advanced Video Codec
Профиль формата : [email protected]
Параметр CABAC формата : Да
Параметр ReFrames формата : 3 кадра
Идентификатор кодека : V_MPEG4/ISO/AVC
Продолжительность : 48 м.
Вид битрейта : Постоянный
Битрейт : 8024 Кбит/сек
Ширина : 1920 пикселей
Высота : 1080 пикселей
Соотношение сторон : 16:9
Частота кадров : 25,000 кадров/сек
Стандарт вещания : PAL
Цветовое пространство : YUV
Субдискретизация насыщенности : 4:2:0
Битовая глубина : 8 бит
Тип развёртки : Прогрессивная
Бит/(Пиксели*Кадры) : 0.155
Размер потока : 2,59 Гбайт (96%)
Заголовок :
Язык : Russian
Default : Нет
Forced : Нет
Основные цвета : BT.709-5, BT.1361, IEC 61966-2-4, SMPTE RP177
Характеристики трансфера : BT.709-5, BT.1361
Коэффициенты матрицы : BT.709-5, BT.1361, IEC 61966-2-4 709, SMPTE RP177

Аудио
Идентификатор : 2
Формат : AC-3
Формат/Информация : Audio Coding 3
Расширение режима : CM (complete main)
Идентификатор кодека : A_AC3
Продолжительность : 48 м.
Вид битрейта : Постоянный
Битрейт : 192 Кбит/сек
Каналы : 2 канала
Расположение каналов : Front: L R
Частота : 48,0 КГц
Битовая глубина : 16 бит
Метод сжатия : С потерями
Размер потока : 66,2 Мбайт (2%)
Default : Да
Forced : Нет




9cc2411deb2123792d8d6e559f79dec76c230063Солдаты напрокат (Сергей Клишин, Дмитрий Бышов, документальный, 2013) [HDTV 1080p, Не требуется] Солдаты напрокат (Сергей Клишин, Дмитрий Бышов, документальный, 2013) [HDTV 1080p, Не требуется] " />

Аплоадер: Админ, дата: 25-11-2013, 12:15, торрент скачан: 359 раз

Понравилась раздача? Посмотрите эти:
  • Географ глобус пропил (Александр Велединский, Драма, 2013) [BDRemux 1080p , ...
  • Va-банк / Runner Runner (Брэд Фурман, триллер, драма, криминал, 2013) [BDRe ...
  • Солдаты напрокат (Документальный, 2013) [HDTVRip, Не требуется]
  • T-ara / Number 9 [2013, KPop, HDRip]
  • Копы в юбках / The Heat [UNRATED] (Пол Фиг, комедия, криминал, боевик, дете ...
  • Больше чем мёд / More Than Honey (документальный, 2012) [BDRemux 1080p, Про ...
  • G.I. Joe: Бросок кобры 2 [Театральная версия] / G.I. Joe: Retaliation [Thea ...
  • Ariana Grande - ft. Mac Miller / The Way [2013, Pop, WEB-DLRip 1080p]
  • Чужие из бездны / Aliens of the Deep (документальный, научно-популярный, 20 ...
  • Лего: Звёздные войны - Награда бомбада / LEGO: Star wars - Вombad Bounty (П ...
  • [NG] Атака больших кошек / Attack of the Big Cats (Эллисон П. Феликс, докум ...
  • День учителя (Сергей Мокрицкий, драма, 2012) [DVDRip-AVC, Не требуется]
  • Стыд / Shame (Стив МакКуин, драма, 2011) [BDRip 1080p, полное дублирование, ...
  • Транзит / Transit (Антонио Негрет, боевик, триллер, драма, криминал, 2011) ...
  • Хищники / Predators (Нимрод Антал, Фантастика, Боевик, Триллер, Приключения ...
  • Скрат: Потерянный орех / Scrat: Gone Nutty (Carlos Saldanha, мультфильм, к ...
  • Скарат: Не время для орехов / Scrat: No Time For Nuts (Крис Рено, Майк Тёр ...
  • Сид, инструкция по выживанию / Surviving Sid (Гален Т. Чу, Карен Дишер, мул ...
  • Чего ждать, когда ждешь ребенка / What to Expect When Youre Expecting (Кирк ...
  • В ритме сердца / Sur le rythme (Шарль Оливье-Мишо, Мелодрама, 2011) [BD-Rem ...
  • Kylie Minogue / Live At Last Night of The Proms [2012, Pop, HDTVRip 1080i]
  • Чемпионат Мира 2012 / Финал / Россия - Словакия [Хоккей, 2012, HDTV 1080i]
  • Чемпионат Европы 2012. Группа C. Испания - Италия / Uefa. Euro 2012. Group ...
  • Чемпионат Европы 2012. Группа Д. Украина - Швеция / Uefa. Euro 2012. Group ...
  • Чемпионат Европы 2012. Группа С. Ирландия - Испания / Uefa. Euro 2012. Grou ...
  • Информация
    Посетители, находящиеся в группе Гости, не могут оставлять комментарии к данной публикации.