вход на сайт

Имя пользователя :
Пароль :

Восстановление пароля Регистрация
Пейзажи времени / TimeScapes (Том Лоу, документальный, 2012) [4K Ultra HDRip, не требуется]
Рейтинг:
(голосов: 1)



[img]{THEME}/images/logopost.png[/img]



Пейзажи времени / TimeScapes

Год выпуска: 2012
Страна: Новая Зеландия
Производство: Southwest Light
Жанр: документальный

Режиссёр: Том Лоу
Ведущие: -

Перевод: Не требуется
Субтитры: Отсутствуют

Описание:
TimeScapes это дебютный фильм оператора и режиссера Тома Лоу. В фильме вы увидите потрясающие пейзажи, людей и дикую природу американского Юго-Запада в замедленной съемке. Лоу провел 2 года колеся по стране на своем пикапе Toyota в поисках подходящих сцен для фильма.


Доп. информация:
⚫TimeScapes был снять на камеры Red Epic и Canon DLSR с разрешением 5K
⚫Это первый в мире фильм предоставленный широкой публике в виде 4K-файла

⚫Качество: 4K Ultra HDRip
⚫Продолжительность: 00:48:21

⚫Формат: MKV
⚫Главы: нет
⚫Видео кодек: MPEG-4 AVC
⚫Аудио кодек: AC3
⚫Видео: 4096x2304 (16:9), 23.976 fps, [email protected] ~80.3 Mbps, 0.355 bit/pixel
⚫Аудио: 5.1 ch, 48KHz, 16-bit, 640 Kbps Kbps

MediaInfo ▼
General
Unique ID : 173944033772217184882913387750466976638 (0x82DC66FF078F24E69112A97BEB4EFB7E)
Complete name : C:ЗагрузкиTimeScapes.2012.2304p.CineForm.x264-WiKi.mkv
Format : Matroska
Format version : Version 4 / Version 2
File size : 27.9 GiB
Duration : 48mn 21s
Overall bit rate : 82.6 Mbps
Encoded date : UTC 2014-01-03 07:24:52
Writing application : mkvmerge v6.6.0 (The Edge Of The In Between) built on Dec 1 2013 17:55:00
Writing library : libebml v1.3.0 + libmatroska v1.4.1
Video #1
ID : 1
Format : AVC
Format/Info : Advanced Video Codec
Format profile : [email protected]
Format settings, CABAC : Yes
Format settings, ReFrames : 4 frames
Codec ID : V_MPEG4/ISO/AVC
Duration : 48mn 21s
Bit rate : 80.3 Mbps
Width : 4 096 pixels
Height : 2 304 pixels
Display aspect ratio : 16:9
Frame rate mode : Constant
Frame rate : 23.976 fps
Color space : YUV
Chroma subsampling : 4:2:0
Bit depth : 8 bits
Scan type : Progressive
Bits/(Pixel*Frame) : 0.355
Stream size : 27.1 GiB (97%)
Title : [email protected]
Writing library : x264 core 140 r2377+40 929f149 tMod [[email protected]:2:0 X86]
Encoding settings : cabac=1 / ref=1 / deblock=1:-3:-3 / analyse=0x3:0x113 / me=umh / subme=11 / psy=1 / fade_compensate=0.00 / psy_rd=1.00:0.00 / mixed_ref=0 / me_range=48 / chroma_me=1 / trellis=2 / 8x8dct=1 / cqm=0 / deadzone=21,11 / fast_pskip=0 / chroma_qp_offset=-4 / threads=12 / lookahead_threads=2 / sliced_threads=0 / nr=0 / decimate=0 / interlaced=0 / bluray_compat=0 / constrained_intra=0 / fgo=0 / bframes=8 / b_pyramid=2 / b_adapt=2 / b_bias=0 / direct=3 / weightb=1 / open_gop=0 / weightp=2 / keyint=250 / keyint_min=23 / scenecut=40 / intra_refresh=0 / rc=crf / mbtree=0 / crf=16.0000 / qcomp=0.80 / qpmin=0:0:0 / qpmax=69:69:69 / qpstep=4 / ip_ratio=1.20 / pb_ratio=1.30 / aq=1:0.85 / aq-sensitivity=10.00 / aq-factor=1.00:1.00:1.00 / aq2=0 / aq3=0 / zones=24371,24929,crf=14
Language : English
Default : Yes
Forced : No
Audio #2
ID : 2
Format : AC-3
Format/Info : Audio Coding 3
Mode extension : CM (complete main)
Format settings, Endianness : Big
Codec ID : A_AC3
Duration : 48mn 21s
Bit rate mode : Constant
Bit rate : 640 Kbps
Channel count : 6 channels
Channel positions : Front: L C R, Side: L R, LFE
Sampling rate : 48.0 KHz
Bit depth : 16 bits
Compression mode : Lossy
Stream size : 221 MiB (1%)
Title : English
Language : English
Default : Yes
Forced : No



6aeca1d192ac9841b14caddc950bec29a9b0ceb0Пейзажи времени / TimeScapes (Том Лоу, документальный, 2012) [4K Ultra HDRip, не требуется] Пейзажи времени / TimeScapes (Том Лоу, документальный, 2012) [4K Ultra HDRip, не требуется] " />

Аплоадер: Админ, дата: 7-01-2014, 14:06, торрент скачан: 359 раз

Понравилась раздача? Посмотрите эти:
  • Dev feat. Enrique Iglesias / Naked [2012, Pop, HDRip]
  • Tyga feat. Justin Bieber / Wait For A Minute [2013, Hip-Hop, HDRip]
  • Gloria Trevi / No Querias Lastimarme [2013, Latin, Pop, HDRip]
  • FLO / NRG [2012, Pop, Dance, MasterRip]
  • Eminem / Rap God [2013, Rap, HDRip]
  • Brit Smith feat. Will.i.am / Provocative (Explicit) [2013, Hip-Hop, HDRip]
  • Havana Brown / Warrior [2013, Dance, HDRip]
  • Dyland & Lenny feat. Beatriz Luengo & Pitbull / Sin Ti [2013, Hip-Hop, Rap, ...
  • UFC The Ultimate 100 Knockouts - PPV [MMA,2013, HDTVRip 720p]
  • VA / 2013 MTV Movie Awards [2013, Церемония награждения, HDRip]
  • Пейзажи времени / TimeScapes: The Movie (Том Лоу, документальный, видовой, ...
  • Пейзажи времени / TimeScapes (Том Лоу, документальный, 2012) [Blu-ray 1080p ...
  • Чемпионат Европы 2012 / 1/4 финала / Чехия - Португалия / Спорт 1 HD [Футбо ...
  • Чемпионат Европы 2012 / 1/2 финала / Португалия - Испания / Спорт 1 HD [Фу ...
  • Чемпионат Европы 2012 / 1/2 финала / Германия - Италия / Спорт 1 HD [Футбо ...
  • Chelsea - Season Review 2011-12 / Челси - Обзор Сезона 2011-12 [ Футбол, 20 ...
  • Mylene Farmer / Du Temps [2011, Pop, HDTVRip]
  • Mylene Farmer / Bleu Noir [2011, Pop, HDTVRip]
  • PBS: Природа – Гималаи / PBS: Nature – The Himalayas (Крис Морган, Докумен ...
  • Madonna / Girl Gone Wild [2012, Pop, HDTV]
  • Информация
    Посетители, находящиеся в группе Гости, не могут оставлять комментарии к данной публикации.