вход на сайт

Имя пользователя :
Пароль :

Восстановление пароля Регистрация
Выжить любой ценой - Сезон 7 / Ultimate Survival - Season 7 (Документальный, 2011 г) [HDTV, 1080i, Профессиональный (одноголосый, закадровый)]
Рейтинг:
(голосов: 1)



[img]{THEME}/images/logopost.png[/img]



Год выпуска: 2011
Страна: США
Производство: Diverse Productions
Жанр: Документальный


Pежиссер: Николас Уайт, Дэвид О’Нилл, Майк Уорнер
В ролях: Беар Гриллс, Уилл Феррелл, Джейк Джилленхол

Перевод: Профессиональный (одноголосый, закадровый)
Русские субтитры: нет

Описание: Любите природу и путешествия? Не спешите с ответом. Сначала попробуйте остаться с ней один на один в самых неподходящих для лирики условиях, как это сделал ведущий новой передачи Discovery Channel «Выжить любой ценой». Беар Гриллс, в прошлом спецназовец, путешествует по диким и опасным уголкам планеты, проверяя свои навыки выживания...




В раздаче представленны серии:


7x01 Men vs Wild with Jake Gyllenhaal ▼
Скриншоты: ▼


MediaInfo ▼
General #6
ID : 6 (0x6)
Complete name : 7x01 Men vs Wild with Jake Gyllenhaal.ts
Format : MPEG-TS
File size : 2.34 GiB
Duration : 48mn 49s
Overall bit rate mode : Variable
Overall bit rate : 6 857 Kbps
Video #325
ID : 325 (0x145)
Menu ID : 1 (0x1)
Format : AVC
Format/Info : Advanced Video Codec
Format profile : [email protected]
Format settings, CABAC : Yes
Format settings, ReFrames : 4 frames
Codec ID : 27
Duration : 48mn 49s
Bit rate : 6 131 Kbps
Width : 1 920 pixels
Height : 1 080 pixels
Display aspect ratio : 16:9
Frame rate : 25.000 fps
Standard : Component
Color space : YUV
Chroma subsampling : 4:2:0
Bit depth : 8 bits
Scan type : Interlaced
Scan order : Top Field First
Bits/(Pixel*Frame) : 0.118
Stream size : 2.09 GiB (89%)
Language : English
Color primaries : BT.709
Transfer characteristics : BT.709
Matrix coefficients : BT.709
Audio #405
ID : 405 (0x195)
Menu ID : 1 (0x1)
Format : AC-3
Format/Info : Audio Coding 3
Mode extension : CM (complete main)
Format settings, Endianness : Big
Codec ID : 129
Duration : 48mn 49s
Bit rate mode : Constant
Bit rate : 384 Kbps
Channel(s) : 6 channels
Channel positions : Front: L C R, Side: L R, LFE
Sampling rate : 48.0 KHz
Bit depth : 16 bits
Compression mode : Lossy
Delay relative to video : 21ms
Stream size : 134 MiB (6%)
Language : Russian

7x02 New Zealand: South Island ▼
Скриншоты: ▼


MediaInfo ▼
General #6
ID : 6 (0x6)
Complete name : 7x02 New Zealand South Island.ts
Format : MPEG-TS
File size : 2.74 GiB
Duration : 48mn 48s
Overall bit rate mode : Variable
Overall bit rate : 8 040 Kbps
Video #325
ID : 325 (0x145)
Menu ID : 1 (0x1)
Format : AVC
&nbs
0b9ed3929b644088dbd55a3943f9219a5f73f101Выжить любой ценой - Сезон 7 / Ultimate Survival - Season 7 (Документальный, 2011 г) [HDTV, 1080i, Профессиональный (одноголосый, закадровый)] Выжить любой ценой - Сезон 7 / Ultimate Survival - Season 7 (Документальный, 2011 г) [HDTV, 1080i, Профессиональный (одноголосый, закадровый)] " />

Аплоадер: Админ, дата: 24-11-2012, 12:46, торрент скачан: 359 раз

Понравилась раздача? Посмотрите эти:
  • Rihanna / What Now [2013, R&B, HDTV]
  • Kara / Speed Up [2012, K-Pop, J-Pop, Dance, BDRemux]
  • Чемпионат Мира 2014 / Отборочный турнир / Группа I / 10-й тур / Беларусь - ...
  • Чемпионат Англии 2012-2013 / 36-й тур / Манчестер Юнайтед - Челси / Спорт 1 ...
  • Чемпионат Германии 2012-2013 / 32-й тур / Боруссия (Дортмунд) – Бавария / Н ...
  • Чемпионат Испании 2012-13 / 34-й тур / Реал Мадрид - Вальядолид / НТВ+ [04. ...
  • Тележурнал "Евроголы" / Eurosport HD [Футбол, 06.05.2013, 1080i, H264, RU, ...
  • Парад Победы. Москва. Красная Площадь / Военный парад, посвящённый 68-й год ...
  • [NG] Путешествие по Атлантике: Часть 2 / Travel across the Atlantic: Part 2 ...
  • [NG] Превосходство бегемота / The superiority of the hippo (Документальный, ...
  • Укуренные / Cheech and Chongs Up in Smoke (Лу Адлер, Томми Чонг, комедия, м ...
  • Выжить любой ценой: Необитаемый остров / Ultimate Survival (Man vs Wild): H ...
  • Выжить любой ценой: Выжить в городе / Ultimate Survival: Urban Survivor (Di ...
  • Чемпионат Испании 2011-12 / 35-й тур / Барселона - Реал / Футбол HD [Футбол ...
  • Katy Perry / Live At Rock In Rio [2011, Pop, HDTV] [1080i]
  • Mick Jagger / SNL [2012, Rock, HDTV 1080i]
  • Rihanna / Diamonds (Victorias Secret) [2012, RnB, HDTV 1080i]
  • David Guetta feat. Sia / She Wolf [2012, Pop, Dance, HDTV 1080i]
  • Голос // Выпуск 13 / Суперфинал (ТВ-шоу, 29.12.2012) [HDTV |1080i|, Не треб ...
  • Melody Gardot / Mira [2012, Jazz, Acoustic, HDTV 1080i]
  • [Discovery] Выжить любой ценой: Выжить в городе / Ultimate Survival: Urban ...
  • [Discovery] Выжить любой ценой -Исландия: Люди против природы / Ultimate s ...
  • [Discovery] Выжить любой ценой-Южная Юта Страна красных скал/Ultimate survi ...
  • [3D] Тростниковые жабы: Оккупация 3Д / Cane Toads: The Conquest 3D(Марк Лью ...
  • [Discovery] Выжить любой ценой / Ultimate Survival // Сезон 7, эпизоды 1-6 ...
  • Информация
    Посетители, находящиеся в группе Гости, не могут оставлять комментарии к данной публикации.