вход на сайт

Имя пользователя :
Пароль :

Восстановление пароля Регистрация
Дневники разработчиков Nissan GT-R / The GT-R Legend (Хакидо Санир, Документальный, Aвто-спорт, 2008) [HDTV 720p, Профессиональный (одноголосый)]
Рейтинг:
(голосов: 1)



[img]{THEME}/images/logopost.png[/img]



Дневники разработчиков Nissan GT-R / The GT-R Legend

Страна: Япония
Производство: Tv-Sport
Год выпуска: 2008
Жанр: Документальный, Aвто-спорт
Режиссёр: Хакидо Санир

Перевод: Профессиональный (одноголосый)
Субтиры: Нет

Описание: Японские конструкторы и гонщики-испытатели представляют новую модель Nissan GT-R 2008 года. В 3-х фильмах рассказывается о том, как создавалась Nissan GT-R (35)

Релиз:

Качество: HDTV 720p
Продолжительность: 00:11:08 + 00:13:57 + 00:13:31

Формат: AVI
Видео кодек: DivX
Аудио кодек: MP3
Свойства видео: 1280x720 (16:9), 29 fps, 2999 kbps avg, 0.109 bit/pixel
Свойства аудио: 48 kHz, MP3, 2 ch, 256 kbps

"Media Ifno" ▼D:ФильмыGT-R_legendGTR_legend-1.avi
General
Complete name : D:ФильмыGT-R_legendGTR_legend-1.avi
Format : DivX
Format/Info : Hack of AVI
File size : 260 MiB
Duration : 11mn 8s
Overall bit rate : 3 267 Kbps
Video #0
ID : 0
Format : MPEG-4 Visual
Format settings, BVOP : 1
Format settings, QPel : No
Format settings, GMC : No warppoints
Format settings, Matrix : Default (H.263)
Muxing mode : Packed bitstream
Codec ID : DX50
Codec ID/Hint : DivX 5
Duration : 11mn 8s
Bit rate : 2 999 Kbps
Width : 1 280 pixels
Height : 720 pixels
Display aspect ratio : 16:9
Frame rate : 29.970 fps
Color space : YUV
Chroma subsampling : 4:2:0
Bit depth : 8 bits
Scan type : Progressive
Compression mode : Lossy
Bits/(Pixel*Frame) : 0.109
Stream size : 239 MiB (92%)
Title : Main
Writing library : DivX 6.8.2 (UTC 2008-05-17)
Audio #1
ID : 1
Format : MPEG Audio
Format version : Version 1
Format profile : Layer 3
Mode : Joint stereo
Mode extension : MS Stereo
Codec ID : 55
Codec ID/Hint : MP3
Duration : 11mn 8s
Bit rate mode : Constant
Bit rate : 256 Kbps
Channel(s) : 2 channels
Sampling rate : 48.0 KHz
Compression mode : Lossy
Stream size : 20.4 MiB (8%)
Alignment : Split accross interleaves
Interleave, duration : 33 ms (1.00 video frame)
Interleave, preload duration : 500 ms
Title : Audio
Writing library : LAME3.97



21bee5186266c433f40834fe11221ff8efbdcdffДневники разработчиков Nissan GT-R / The GT-R Legend (Хакидо Санир, Документальный, Aвто-спорт, 2008) [HDTV 720p, Профессиональный (одноголосый)] Дневники разработчиков Nissan GT-R / The GT-R Legend (Хакидо Санир, Документальный, Aвто-спорт, 2008) [HDTV 720p, Профессиональный (одноголосый)] " />

Аплоадер: Админ, дата: 6-09-2011, 14:13, торрент скачан: 359 раз

Понравилась раздача? Посмотрите эти:
  • Rihanna / What Now [2013, R&B, HDTV]
  • [NG] Крайний рубеж телескопа Хаббл / Hubble`s Final Frontier (документальны ...
  • Чемпионат Италии 2012-13 / 36-й тур / Рома — Кьево / НТВ+ [07.05.2013, SD, ...
  • Чемпионат Англии 2012-2013 / 32-й тур / Обзор Матчей / Спорт 1 [Футбол, 08. ...
  • Чемпионат Англии 2012-2013 / 31-й тур / Обзор Матчей / Спорт 1 [Футбол, 02. ...
  • Псы войны / The Dogs of War (Джон Ирвин, боевик, драма, приключения, военны ...
  • Формула 1 2011 / Этап 17 из 19 / Гран-При Индии / Гонка / Спорт 1 [30.10.20 ...
  • Чемпионат Англии 2011-12 / 36 тур / Челси - Куинз Парк Рейнджерс / Спорт 1 ...
  • Чемпионат Европы 2012 / Группа C / 1-й тур / Ирландия — Хорватия / ТРК Футб ...
  • Чемпионат Европы 2012 / Группа D / 1-й тур / Украина - Швеция / Спорт 1 [11 ...
  • Олимпиада 2012 / Мужчины / Группа D / 1-й тур / Испания — Япония / НТВ+ [Фу ...
  • Олимпиада 2012 / Футбол / Мужчины / Группа A / 3-й тур / Великобритания - У ...
  • Скуби-Ду: Нападение Пантазаура / Scooby-Doo! Legend of the Phantosaur (Дугл ...
  • Вячеслав Бутусов."Когда умолкнут все песни..." (документальный, 15.10.2011) ...
  • Бессмертие / Immortality (Документальный, 2008) [SatRip, Профессиональный ( ...
  • Чемпионат Англии 2011-12 / 32 тур / Манчестер Юнайтед - Куинз Парк Рейнджер ...
  • Чемпионат Англии 2011-12 / 32-й тур / Обзор тура / Спорт 1 [Футбол, 10.04.2 ...
  • Чемпионат Англии 2011-12 / 35 тур / Манчестер Юнайтед - Эвертон / Спорт 1 [ ...
  • Чемпионат Англии 2011-12 / 37-й тур / Манчестер Юнайтед - Суонси Сити / Спо ...
  • Чемпионат Европы 2012 / Группа B / 1-й тур / Германия - Португалия / Спорт ...
  • Бой за титул чемпиона мира в первом полусреднем весе по версии IBO / Хабиб ...
  • Олимпийский квалификационный турнир 2012 / Венесуэла / Мужчины / Группа C / ...
  • Товарищеский матч 2012 / АмаЗулу (ЮАР) - Манчестер Юнайтед (Англия) / MU TV ...
  • Олимпиада 2012 / Женщины, Мужчины / Плавание / Квалификация / НТВ+ [30.07.2 ...
  • Чемпионат Испании 2012-13 | Liga BBVA | 6-й тур | Обзор матчей | НТВ+ [Футб ...
  • Информация
    Посетители, находящиеся в группе Гости, не могут оставлять комментарии к данной публикации.