вход на сайт

Имя пользователя :
Пароль :

Восстановление пароля Регистрация
Восемь с половиной (8½ ) / Otto e mezzo / Eight and a Half (Федерико Феллини, драма, 1963) [BDRip 720p, многоголосый, оригинал (Итальянский), субтитры]
Рейтинг:
(голосов: 1)



[img]{THEME}/images/logopost.png[/img]



Восемь с половиной — 8½ — Otto E Mezzoe

Год выпуска: 1963
Страна: Италия
Производство: Francinex
Жанр: драма

Перевод: профессиональный многоголосый, закадровый; итальянский оригинал
Cубтитры: английские (отключаемые)

Режиссёр и автор сценария: Федерико Феллини
Оператор: Джанни Ди Венанцо
Композитор: Нино Рота, Вагнер, Чайковский, Россини.
В ролях: Марчелло Мастроянни, Клаудия Кардинале, Анук Эме, Сандра Мило, Росселла Фальк, Барбара Стил, Мадлен ле Бо

Описание: «Восемь с половиной» (итал. «Otto e mezzo») — кинофильм Федерико Феллини, 1963-го года.
Картина завоевала Большой приз Московского кинофестиваля (1963), две премии «Оскар» (1964), премию BAFTA (1964) и другие награды. В 1995 году она была включена в список 45-ти величайших фильмов всех времён, составленный в Ватикане к столетию кинематографа. Фильм — парафраз виртуозности и поэтичности творческого процесса режиссера: кризис, поиск, каверзы воображения, тупики, интеллектуальный климат, неразрывный поток субъективного и объективного. ©

IMDB: 8.1 (42067)
КиноПоиск: 8.126 (5339)

Качество: BDRip 720p (источник)
Продолжительность: 01:43:19 часов

Формат: .MKV
Видео кодек: x264
Аудио кодек: AC3
Свойства видео: 1280x688 (1.86:1), 23.976 fps, MPEG-4 AVC ~7197 VA kbps avg. VBR, DXVA, 0.341 bit/pixel
Свойства аудио:

Русский (профессиональный многоголосый, закадровый от Film Prestige): Dolby Digital Acoustic Coder 3 Stereo (AC-3) 2 ch, 192 kbps CBR, 48 kHz, 16 bit;
Итальянский (оригинал): Dolby Digital Acoustic Coder 3 Mono (AC-3) 1 ch, 640 kbps CBR, 48 kHz, 16 bit;
mediainfo ▼TextGeneral
Unique ID : 200886199505019524643883410700796035036 (0x9721465301CBC679984D8F978E65FFDC)
Complete name : Eight.and.a.Half.1963.720p.mkv
Format : Matroska
Format version : Version 2
File size : 8.13 GiB
Duration : 2h 19mn
Overall bit rate : 8 373 Kbps
Encoded date : UTC 2010-01-12 11:52:10
Writing application : mkvmerge v2.9.5 (Tu es le seul) built on Jun 7 2009 11:07:07
Writing library : libebml v0.7.7 + libmatroska v0.8.1

Video
ID : 1
Format : AVC
Format/Info : Advanced Video Codec
Format profile : [email protected]
Format settings, CABAC : Yes
Format settings, ReFrames : 5 frames
Codec ID : V_MPEG4/ISO/AVC
Duration : 2h 19mn
Bit rate : 7 539 Kbps
Width : 1 280 pixels
Height : 688 pixels
Display aspect ratio : 1.860
Frame rate : 23.976 fps
Color space : YUV
Chroma subsampling : 4:2:0
Bit depth : 8 bits
Scan type : Progressive
Bits/(Pixel*Frame) : 0.357
Stream size : 7.16 GiB (88%)
Writing library : x264 core 80 r1376 3feaec2
Encoding settings : cabac=1 / ref=5 / deblock=1:-1:-1 / analyse=0x3:0x113 / me=umh / subme=8 / psy=1 / psy_rd=1.0:0.0 / mixed_ref=1 / me_range=16 / chroma_me=1 / trellis=1 / 8x8dct=1 / cqm=0 / deadzone=21,11 / fast_pskip=0 / chroma_qp_offset=-2 / threads=6 / sliced_threads=0 / nr=0 / decimate=1 / mbaff=0 / constrained_intra=0 / bframes=3 / b_pyramid=0 / b_adapt=1 / b_bias=0 / direct=3 / wpredb=1 / wpredp=2 / keyint=250 / keyint_min=25 / scenecut=40 / rc_lookahead=40 / rc=2pass / mbtree=1 / bitrate=7539 / ratetol=1.0 / qcomp=0.60 / qpmin=10 / qpmax=51 / qpstep=4 / cplxblur=20.0 / qblur=0.5 / ip_ratio=1.40 / aq=1:1.10
Language : English
Default : Yes
Forced : No

Audio #1
ID : 2
Format : AC-3
Format/Info : Audio Coding 3
Mode extension : CM (complete main)
Codec ID : A_AC3
Duration : 2h 19mn
Bit rate mode : Constant
Bit rate : 192 Kbps
Channel(s) : 2 channels
Channel positions : Front: L R
Sampling rate : 48.0 KHz
Bit depth : 16 bits
Compression mode : Lossy
Stream size : 191 MiB (2%)
Language : Russian
Default : Yes
Forced : No

Audio #2
ID : 3
Format : AC-3
Format/Info : Audio Coding 3
Mode extension : CM (complete main)
Codec ID : A_AC3
Duration : 2h 19mn
Bit rate mode : Constant
Bit rate : 640 Kbps
Channel(s) : 1 channel
Channel positions : Front: C
Sampling rate : 48.0 KHz
Bit depth : 16 bits
Compression mode : Lossy
Stream size : 637 MiB (8%)
Language : Italian
Default : No
Forced : No

Text
I
69cae1be833ecfd253d0bcc5a338336b24cd900fВосемь с половиной (8½ ) / Otto e mezzo / Eight and a Half (Федерико Феллини, драма, 1963) [BDRip 720p, многоголосый, оригинал (Итальянский), субтитры] Восемь с половиной (8½ ) / Otto e mezzo / Eight and a Half (Федерико Феллини, драма, 1963) [BDRip 720p, многоголосый, оригинал (Итальянский), субтитры] " />

Аплоадер: Админ, дата: 31-05-2012, 19:47, торрент скачан: 359 раз

Понравилась раздача? Посмотрите эти:
  • Великая красота / La grande bellezza (Паоло Соррентино, драма, комедия, 201 ...
  • Погнали! / Getaway (Кортни Соломон, боевик, криминал, 2013) [BDRip 720p, Пр ...
  • Верное дельце / Une pure affaire (Александр Коффре, Боевик, Комедия, Кримин ...
  • Посылка / The Package (Джесси Джонсон, боевик, 2013) [BDRip 720p, Профессио ...
  • 42 / 42 (Брайан Хелгеленд, Драма, биография, спорт, 2013) [BDRip 720p, Проф ...
  • 8 с половиной / 8½ (Федерико Феллини, фэнтези, драма, 1963) [BDRip, Професс ...
  • Смерть на похоронах / Death at a Funeral (Нил ЛаБут, комедия, 2010) [BDRip ...
  • Водитель / The Driver (Уолтер Хилл, Боевик, триллер, драма, криминал, 1978) ...
  • Суррогат / The Sessions (Бен Луин, драма, 2012) [BDRip 720p, Профессиональн ...
  • Джекпот / Arme Riddere (Магнус Мартенс, Боевик, комедия, криминал, 2011) [B ...
  • Убить по расписанию / Ticking Clock (Эрни Барбараш, фантастика, боевик, три ...
  • Восемь с половиной / Otto E Mezzo ( Федерико Феллини )[1963., Драма, DVDRip ...
  • Восемь с половиной / 8 ½ / Otto E Mezzo (Федерико Феллини / Federico Fellin ...
  • Чаббчаббы спасают Рождество / The Chubbchubbs Save Xmas (Коуди Камерон, мул ...
  • Далеко-далеко / Far and Away (Рон Ховард, драма, мелодрама, приключения, ве ...
  • Рыжий пес / Red Dog (Крив Стендерс, драма, комедия, семейный, 2011) [BDRip ...
  • Похищенная / A Lonely Place to Die (Джулиан Джилби, триллер, криминал, прик ...
  • Ворон / The Raven (Джеймс МакТиг, Триллер, детектив, 2012) [BDRip 720p, Дуб ...
  • Mylene Farmer / Du Temps [2011, Pop, HDTVRip]
  • Футбольные гладиаторы / Ушедшее время / Awaydays (Пэт Холден, драма, кримин ...
  • Информация
    Посетители, находящиеся в группе Гости, не могут оставлять комментарии к данной публикации.