вход на сайт

Имя пользователя :
Пароль :

Восстановление пароля Регистрация
Китайский квартал / Chinatown (Роман Полански, Триллер, драма, криминал, детектив, 1974) [BDRip 720p, рофессиональный (многоголосый, закадровый), Профессиональный (двухголосый, закадровый), Авторский (одноголосый, закадровый) + Оригинал + Субтитры]
Рейтинг:
(голосов: 1)



[img]{THEME}/images/logopost.png[/img]



Китайский квартал / Chinatown

Год выпуска: 1974
Страна: США
Производство: Paramount Pictures
Жанр: Триллер, драма, криминал, детектив

Режиссёр: Роман Полански
В ролях: Джек Николсон (Jack Nicholson), Фэй Данауэй (Faye Dunaway), Джон Хьюстон (John Huston), Перри Лопес (Perry Lopez), Джон Хиллерман (John Hillerman), Даррел Зверлинг (Darrell Zwerling), Дайан Лэдд (Diane Ladd), Рой Дженсон (Roy Jenson), Роман Полански (Roman Polanski), Ричард Бакалян (Richard Bakalyan).

Перевод: Профессиональный (многоголосый, закадровый) [НТВ+], Профессиональный (двухголосый, закадровый), Авторский (одноголосый, закадровый) [Г. Либергал] + Оригинал
Субтитры:русские, английские.
Описание: ▼Гиттес принимает предложение загадочной богатой красавицы заняться расследованием обстоятельств тайного романа на стороне ее мужа — инженера.Согласившись на это дело, Гиттес не подозревал, что окажется в центре тайных скандалов, беспредела коррупции и скрытых махинаций, правда о которых всплывет однажды ночью вместе с телом несчастного инженера…
7.922
8.40

Качество: BDRip 720p
Продолжительность: 02:10:32

Формат: MKV
Видео кодек: AVC
Аудио кодек: AC3
Видео: 1280 x 544 (2.35:1); 4956 Kbps; 23,976 fps; 0,297 bpp
Аудио: 48 kHz, AC3, 5.1 ch, 448 kbps / НТВ+
Аудио: 48 kHz, AC3, 5.1 ch, 384 kbps / DVO
Аудио: 48 kHz, AC3, 5.1 ch, 384 kbps / (авторский, закадровый) Г. Либергал
Аудио: 48 kHz, AC3, 5.1 ch, 640 kbps / Eng
MediaInfo: ▼General
Unique ID : 249755621735210774822997309904642411072 (0xBBE52EDD8985EBE394DBD14502088A40)
Complete name : D:Chinatown.1974.720p.mkv
Format : Matroska
File size : 6.34 GiB
Duration : 2h 10mn
Overall bit rate : 6 950 Kbps
Encoded date : UTC 2012-04-07 11:20:14
Writing application : mkvmerge v4.5.0 (Speed of Light) сборка от Feb 1 2011 02:10:32
Writing library : libebml v1.2.0 + libmatroska v1.1.0

Video
ID : 1
Format : AVC
Format/Info : Advanced Video Codec
Format profile : [email protected]
Format settings, CABAC : Yes
Format settings, ReFrames : 12 frames
Codec ID : V_MPEG4/ISO/AVC
Duration : 2h 10mn
Bit rate : 4 956 Kbps
Width : 1 280 pixels
Height : 544 pixels
Display aspect ratio : 2.35:1
Frame rate : 23.976 fps
Color space : YUV
Chroma subsampling : 4:2:0
Bit depth : 8 bits
Scan type : Progressive
Bits/(Pixel*Frame) : 0.297
Stream size : 4.52 GiB (71%)
Writing library : x264 core 122 r2184 5c85e0a
Encoding settings : cabac=1 / ref=12 / deblock=1:-3:-3 / analyse=0x3:0x133 / me=umh / subme=10 / psy=1 / psy_rd=1.00:0.00 / mixed_ref=1 / me_range=32 / chroma_me=1 / trellis=2 / 8x8dct=1 / cqm=0 / deadzone=21,11 / fast_pskip=0 / chroma_qp_offset=-2 / threads=3 / sliced_threads=0 / nr=0 / decimate=0 / interlaced=0 / bluray_compat=0 / constrained_intra=0 / bframes=8 / b_pyramid=2 / b_adapt=2 / b_bias=0 / direct=3 / weightb=1 / open_gop=0 / weightp=2 / keyint=250 / keyint_min=23 / scenecut=40 / intra_refresh=0 / rc=crf / mbtree=0 / crf=16.5 / qcomp=0.60 / qpmin=0 / qpmax=69 / qpstep=4 / ip_ratio=1.40 / pb_ratio=1.30 / aq=1:0.60
Language : English

Audio #1
ID : 2
Format : AC-3
Format/Info : Audio Coding 3
Mode extension : CM (complete main)
Codec ID : A_AC3
Duration : 2h 10mn
Bit rate mode : Constant
Bit rate : 448 Kbps
Channel(s) : 6 channels
Channel positions : Front: L C R, Side: L R, LFE
Sampling rate : 48.0 KHz
Bit depth : 16 bits
Compression mode : Lossy
Stream size : 418 MiB (6%)
Title : MVO НТВ+
Language : Russian

Audio #2
ID : 3
Format : AC-3
Format/Info : Audio Coding 3
Mode extension : CM (complete main)
Codec ID : A_AC3
Duration : 2h 10mn
Bit rate mode : Constant
Bit rate : 384 Kbps
Channel(s) : 2 channels
Channel positions : Front: L R
Sampling rate : 48.0 KHz
Bit depth : 16 bits
Compression mode : Lossy
Stream size : 359 MiB (6%)
Title : DVO
Language : Russian

Audio #3
ID : 4
Format : AC-3
Format/Info : Audio Cod
1bbd874b32b3825cd892e9269649e2af464eed9bКитайский квартал / Chinatown (Роман Полански, Триллер, драма, криминал, детектив, 1974) [BDRip 720p, рофессиональный (многоголосый, закадровый), Профессиональный (двухголосый, закадровый), Авторский (одноголосый, закадровый) + Оригинал + Субтитры] Китайский квартал / Chinatown (Роман Полански, Триллер, драма, криминал, детектив, 1974) [BDRip 720p, рофессиональный (многоголосый, закадровый), Профессиональный (двухголосый, закадровый), Авторский (одноголосый, закадровый) + Оригинал + Субтитры] " />

Аплоадер: Админ, дата: 13-04-2012, 09:41, торрент скачан: 359 раз

Понравилась раздача? Посмотрите эти:
  • Погнали! / Getaway (Кортни Соломон, боевик, криминал, 2013) [BDRip 720p, Пр ...
  • Ледяной / The Iceman (Ариэль Вромен, драма, криминал, биография, 2013) [BDR ...
  • Смерть на похоронах / Death at a Funeral (Нил ЛаБут, комедия, 2010) [BDRip ...
  • Отдел 13 / Diamant 13 (Гайллз Бэхат, Боевик, триллер, криминал, 2009) [BDRi ...
  • Водитель / The Driver (Уолтер Хилл, Боевик, триллер, драма, криминал, 1978) ...
  • Суррогат / The Sessions (Бен Луин, драма, 2012) [BDRip 720p, Профессиональн ...
  • Джекпот / Arme Riddere (Магнус Мартенс, Боевик, комедия, криминал, 2011) [B ...
  • Убить по расписанию / Ticking Clock (Эрни Барбараш, фантастика, боевик, три ...
  • Цельнометаллическая оболочка / Full Metal Jacket (Стэнли Кубрик, драма, вое ...
  • Обряд / The Rite (Микаэль Хафстрем, ужасы, триллер, драма, 2011) [BDRip-AVC ...
  • Пятница 13-е / Friday the 13th (Шон С. Каннингэм, ужасы, триллер, детектив, ...
  • Пятница 13-е Часть III / Friday the 13th Part III (Стив Майнер, ужасы, трил ...
  • Бомж с дробовиком / Hobo with a Shotgun (Джейсон Айзенер / Jason Eisener, С ...
  • Мальчишник 2: Из Вегаса в Бангкок / The Hangover Part II (Тодд Филлипс, ком ...
  • Один Дома / Home Alone (Крис Коламбус, комедия, приключения, семейный, 1990 ...
  • Далеко-далеко / Far and Away (Рон Ховард, драма, мелодрама, приключения, ве ...
  • Красавчик Джонни / Johnny Handsome (Уолтер Хилл, Триллер, драма, криминал, ...
  • Похищенная / A Lonely Place to Die (Джулиан Джилби, триллер, криминал, прик ...
  • Пудра / Powder (Виктор Сальва, фантастика, фэнтези, драма, 1995) [HDTVRip 7 ...
  • Ворон / The Raven (Джеймс МакТиг, Триллер, детектив, 2012) [BDRip 720p, Дуб ...
  • Викинги / Outlander (Ховард МакКейн, Фантастика, боевик, приключения, 2008) ...
  • Mylene Farmer / Du Temps [2011, Pop, HDTVRip]
  • PBS: Природа – Гималаи / PBS: Nature – The Himalayas (Крис Морган, Докумен ...
  • Китайский квартал / Chinatown (Роман Полански, Детектив, драма, триллер) [H ...
  • Футбольные гладиаторы / Ушедшее время / Awaydays (Пэт Холден, драма, кримин ...
  • Информация
    Посетители, находящиеся в группе Гости, не могут оставлять комментарии к данной публикации.