вход на сайт

Имя пользователя :
Пароль :

Восстановление пароля Регистрация
Укрощение строптивого / Il Bisbetico Domato (Франко Кастеллано, Джузеппе Моччиа, комедия, 1980) [BDRip 1080p, Дублированный]
Рейтинг:
(голосов: 1)



[img]{THEME}/images/logopost.png[/img]



«Укрощение строптивого / Il Bisbetico Domato»

Год выпуска: 1980
Страна: Италия
Производство: Capital Film
Жанр: комедия

Режиссёр: Франко Кастеллано, Джузеппе Моччиа
В ролях: Адриано Челентано, Орнелла Мути, Эдит Питерс, Пиппо Сантонастасо, Милли Карлуччи, Сандро Гиани, Николя Дель Буоно, Винченцо Де Тома, Джимми иль Феномено, Елена Мари

Перевод: Дублированный
Озвучка: Рудольф Панков, Ольга Гаспарова, Тамара Сёмина, Георгий Вицин, Лариса Виккел
Субтитры: нет

Описание
Категорически не приемлющий женского общества грубоватый фермер вполне счастлив и доволен своей холостяцкой жизнью. Но неожиданно появившаяся в его жизни героиня пытается изменить его взгляды на жизнь и очаровать его. Что же из этого получится…



Доп. информация
Рецензия ▼Нестареющая классика

По-настоящему доброе кино, рассчитанное на любую аудиторию. Отличный, продуманный и легкий сюжет. Несмотря на то, что картина принадлежит эпохи итальянских восьмидесятых, она довольно органично смотрится и сейчас.

Актерский состав подобран отлично. К игре актеров возражений нету. Главный дует в лице Челентано и Орнеллы Мути великолепен. Юмор в фильме нестареющий, довольно остроумный и всегда к месту. Музыкальная составляющая тщательно подобрана.

Это нестареющая классика, которая отлично подойдет для того что б провести свободное время, развеяться, или просто отдохнуть.

10 с 10

СкринЛист ▼

MediaInfo ▼TextОбщее
Уникальный идентификатор : 175075431367161073903603196504100902395 (0x83B64D3452F9DA40BBB0AB28D30D15FB)
Полное имя : D:РаспоковкаУкрощение строптивого.mkv
Формат : Matroska
Версия формата : Version 2
Размер файла : 4,37 Гбайт
Продолжительность : 1 ч. 46 м.
Общий поток : 5867 Кбит/сек
Дата кодирования : UTC 2011-04-23 11:38:12
Программа кодирования : mkvmerge v4.0.0 (The Stars were mine) сборка от Jun 6 2010 16:18:42
Библиотека кодирования : libebml v1.0.0 + libmatroska v1.0.0

Видео
Идентификатор : 1
Формат : AVC
Формат/Информация : Advanced Video Codec
Профиль формата : [email protected]
Параметр CABAC формата : Да
Параметр ReFrames формата : 4 кадра
Идентификатор кодека : V_MPEG4/ISO/AVC
Продолжительность : 1 ч. 46 м.
Битрейт : 5610 Кбит/сек
Ширина : 1920 пикселей
Высота : 1080 пикселей
Соотношение сторон : 16:9
Частота кадров : 24,000 кадра/сек
Цветовое пространство : YUV
Субдискретизация насыщенности : 4:2:0
Битовая глубина : 8 бит
Тип развёртки : Прогрессивная
Бит/(Пиксели*Кадры) : 0.113
Размер потока : 4,09 Гбайт (94%)
Библиотека кодирования : x264 core 115 r1937 aa21558
Настройки программы : cabac=1 / ref=4 / deblock=1:0:0 / analyse=0x3:0x133 / me=umh / subme=10 / psy=1 / psy_rd=1.00:0.10 / mixed_ref=1 / me_range=24 / chroma_me=1 / trellis=2 / 8x8dct=1 / cqm=0 / deadzone=21,11 / fast_pskip=0 / chroma_qp_offset=-3 / threads=12 / sliced_threads=0 / nr=0 / decimate=1 / interlaced=0 / bluray_compat=0 / constrained_intra=0 / bframes=5 / b_pyramid=2 / b_adapt=2 / b_bias=0 / direct=3 / weightb=1 / open_gop=0 / weightp=2 / keyint=250 / keyint_min=23 / scenecut=40 / intra_refresh=0 / rc_lookahead=60 / rc=2pass / mbtree=1 / bitrate=5610 / ratetol=1.0 / qcomp=0.60 / qpmin=0 / qpmax=69 / qpstep=4 / cplxblur=20.0 / qblur=0.5 / ip_ratio=1.40 / aq=1:1.00
Язык : Italian
Default : Да
Forced : Нет

Аудио
Идентификатор : 2
Формат : AC-3
Формат/Информация : Audio Coding 3
Расширение режима : CM (complete main)
Идентификатор кодека : A_AC3
Продолжительность : 1 ч. 46 м.
Вид битрейта : Постоянный
Битрейт : 256 Кбит/сек
Каналы : 2 канала
Расположение каналов : Front: L R
Частота : 48,0 КГц
Битовая глубина : 16 бит
Метод сжатия : С потерями
Размер потока : 195 Мбайт (4%)
Язык : Russian
Default : Да
Forced : Нет


Тех. данные
Качество: BDRip 1080p
Продолжительность: 01:46:39 часа

Формат: MKV
Видео кодек: AVC [email protected]
Аудио кодек: AC-3
Видео: 1920x1080 (16:9), 24.00 fps, AVC, ~ 5610 kbps avg, 0.113 bit/pixel
Аудио: 48.00 kHz, Audio Coding 3, 2 ch, ~ 25
9f9c1e9823a04717861c8cf86ee26d6b6debb34dУкрощение строптивого / Il Bisbetico Domato (Франко Кастеллано, Джузеппе Моччиа, комедия, 1980) [BDRip 1080p, Дублированный] Укрощение строптивого / Il Bisbetico Domato (Франко Кастеллано, Джузеппе Моччиа, комедия, 1980) [BDRip 1080p, Дублированный] " />

Аплоадер: Админ, дата: 25-03-2012, 11:18, торрент скачан: 359 раз

Понравилась раздача? Посмотрите эти:
  • Подглядывающий на кухне / Kick the Cock (Тинто Брасс, Эротика, короткометра ...
  • Одноклассники 2 / Grown Ups 2 (Деннис Дуган, Комедия, 2013) [BDRip-AVC, Про ...
  • Одноклассники 2 / Grown Ups 2 (Деннис Дуган, комедия, 2013) [BDRip 1080p, Д ...
  • Погнали! / Getaway (Кортни Соломон, боевик, криминал, 2013) [BDRip 1080p, П ...
  • Византия / Byzantium (Нил Джордан, Фэнтези, триллер, драма, 2012) [BDRip 10 ...
  • Заклятие / The Conjuring (Джеймс Ван, ужасы, триллер, 2013) [BDRip 1080p, Д ...
  • Башня / The Tower (Чи-хун Ким, драма, 2012) [BDRip-AVC, Любительский (двухг ...
  • Перелом / Fracture (Грегори Хоблит, Триллер, драма, криминал, детектив, 200 ...
  • Ворон / The Raven (Джеймс МакТиг, Триллер, детектив, 2012) [BDRip 1080p, Ду ...
  • Даю год / I Give It a Year (Дэн Мазер, мелодрама, комедия, 2012) [BDRip-AVC ...
  • Чемпионат Англии 2012-2013 / 25-й тур / Обзор / Суббота / BBC Sport [2013 г ...
  • Думай, как мужчина / Think Like a Man (Тим Стори, Мелодрама, комедия, 2012) ...
  • Укрощение строптивого / Il bisbetico domato (Франко Кастеллано, Джузеппе Мо ...
  • Укрощение строптивого / Il bisbetico domato (Франко Кастеллано, Джузеппе Мо ...
  • Переростки / The Inbetweeners (Бен Палмер, Комедия, 2011) [BDRip-AVC, Профе ...
  • Скрат: Потерянный орех / Scrat: Gone Nutty (Карлос Салдана, короткометражка ...
  • Заражение / Contagion (Стивен Содерберг, Фантастика, 2011) [BDRip 1080p, Пр ...
  • Лоракс: Серенада / The Lorax: Serenade (Кайл Балда, мультфильм, комедия, му ...
  • Невероятный Халк / The Incredible Hulk (Луи Летерье, фантастика, боевик, тр ...
  • Укрощение строптивого / Il bisbetico domato (Кастеллано / Castellano/, Пипо ...
  • Укрощение строптивого / Il Bisbetico Domato (Франко Кастеллано, Джузеппе Мо ...
  • Укрощение строптивого / Il Bisbetico domato (Франко Кастеллано) [1980 / Ком ...
  • Укрощение строптивого / Il bisbetico domato (Франко Кастеллано, Джузеппе Мо ...
  • Укрощение строптивого / Il bisbetico domato (Франко Кастеллано, Джузеппе Мо ...
  • Укрощение строптивого / Il bisbetico domato (Capital Film, комедия, 1980) [ ...
  • Информация
    Посетители, находящиеся в группе Гости, не могут оставлять комментарии к данной публикации.