вход на сайт

Имя пользователя :
Пароль :

Восстановление пароля Регистрация
Пирамида сынов Солнца / Die Pyramide des Sonnengottes (Роберт Сьодмак, Приключения, вестерн, 1965) [BDRip 1080p, Профессиональный (многоголосый, закадровый) + Оригинал (Немецкий)]
Рейтинг:
(голосов: 1)



[img]{THEME}/images/logopost.png[/img]



Пирамида сынов Солнца / Die Pyramide des Sonnengottes

Год выпуска: 1965
Страна: Франция , Италия , Германия (ФРГ)
Производство: Авала-фильм, CCC Filmkunst GmbH, Franco London Films, Serena
Жанр: Приключения, вестерн

Режиссёр: Роберт Сьодмак
В ролях: Лекс Баркер, Жерар Барре, Мишель Жирардон, Ханс Нильсен, Рик Баталья, Ральф Вальтер, Тереса Лорка, Фаусто Тоцци, Густаво Роха, Кело Хендерсон, Алессандра Панаро, Жан Роже Коссимон, Антон Налис, Владимир Попович, Йован Николич, Нада Радович

Перевод: Профессиональный (многоголосый, закадровый) + Оригинал (Немецкий)
Озвучка: Неизвестно
Субтитры:Отсутствуют

Описание
Продолжение фильма "Сокровища ацтеков". В 1864 году в Мексике вопреки воле народа к власти пришел ставленник Наполеона III эрцгерцог Максимилиан Австрийский. Зреет революционное движение. Лидеру повстанцев Бенито Хуаресу через немецкого врача передает послание президент США Линкольн...



Доп. информация
Премьеры ▼премьера (мир)17 апреля 1965
Mediainfo ▼TextGeneral
Unique ID : 227923081218833667481140672643542065628 (0xAB786382BCA04F86B549639162B4A1DC)
Complete name : D:фильмыPiramida.synov.solnca.1965.BDRip.1080p.mkv
Format : Matroska
Format version : Version 2
File size : 7.55 GiB
Duration : 1h 38mn
Overall bit rate : 11.0 Mbps
Encoded date : UTC 2013-01-20 19:39:11
Writing application : mkvmerge v5.4.0 (Piper) built on Mar 10 2012 13:34:39
Writing library : libebml v1.2.3 + libmatroska v1.3.0

Video
ID : 1
Format : AVC
Format/Info : Advanced Video Codec
Format profile : [email protected]
Format settings, CABAC : Yes
Format settings, ReFrames : 4 frames
Codec ID : V_MPEG4/ISO/AVC
Duration : 1h 38mn
Bit rate : 10 000 Kbps
Width : 1 920 pixels
Height : 808 pixels
Display aspect ratio : 2.40:1
Frame rate : 23.976 fps
Color space : YUV
Chroma subsampling : 4:2:0
Bit depth : 8 bits
Scan type : Progressive
Bits/(Pixel*Frame) : 0.269
Stream size : 6.75 GiB (89%)
Writing library : x264 core 125 r2208 d9d2288
Encoding settings : cabac=1 / ref=4 / deblock=1:-3:-3 / analyse=0x3:0x133 / me=umh / subme=11 / psy=1 / psy_rd=1.00:0.00 / mixed_ref=1 / me_range=32 / chroma_me=1 / trellis=2 / 8x8dct=1 / cqm=0 / deadzone=21,11 / fast_pskip=0 / chroma_qp_offset=-2 / threads=6 / lookahead_threads=1 / sliced_threads=0 / nr=0 / decimate=0 / interlaced=0 / bluray_compat=0 / constrained_intra=0 / bframes=9 / b_pyramid=2 / b_adapt=2 / b_bias=0 / direct=3 / weightb=1 / open_gop=0 / weightp=2 / keyint=240 / keyint_min=23 / scenecut=40 / intra_refresh=0 / rc=2pass / mbtree=0 / bitrate=10000 / ratetol=1.0 / qcomp=0.60 / qpmin=0 / qpmax=69 / qpstep=4 / cplxblur=20.0 / qblur=0.5 / ip_ratio=1.40 / pb_ratio=1.30 / aq=1:0.80
Language : German
Default : Yes
Forced : No

Audio #1
ID : 2
Format : AC-3
Format/Info : Audio Coding 3
Format profile : Dolby Digital
Mode extension : CM (complete main)
Codec ID : A_AC3
Duration : 1h 38mn
Bit rate mode : Constant
Bit rate : 192 Kbps
Channel(s) : 2 channels
Channel positions : Front: L R
Sampling rate : 48.0 KHz
Bit depth : 16 bits
Compression mode : Lossy
Stream size : 135 MiB (2%)
Language : Russian
Default : Yes
Forced : No

Audio #2
ID : 3
Format : DTS
Format/Info : Digital Theater Systems
Codec ID : A_DTS
Duration : 1h 38mn
Bit rate mode : Constant
Bit rate : 755 Kbps
Channel(s) : 2 channels
Channel positions : Front: L R
Sampling rate : 48.0 KHz
Bit depth : 24 bits
Compression mode : Lossy
Stream size : 532 MiB (7%)
Language : German
Default : No
Forced : No

Menu
00:00:00.000 : :Chapter 01
00:08:28.215 : :Chapter 02
00:16:32.282 : :Chapter 03
00:24:17.914 : :Chapter 04
00:33:30.717 : :Chapter 05
00:41:18.559 : :Chapter 06
00:51:28.585 : :Chapter 07
00:57:29.445 : :Chapter 08
01:10:38.317 : :Chapter 09
01:22:02.751 : :Chapter 10
01:31:01.247 : :Chapter 11[/ code]

Тех. данные
Качество: BDRip 1080p
Продолжительность: 01:38:36 час.

Формат: MKV
Видео кодек: H.264
Аудио кодек: AС3, DTS
892ef7d04e2451a152e8ff485ae3814188fde83fПирамида сынов Солнца / Die Pyramide des Sonnengottes (Роберт Сьодмак, Приключения, вестерн, 1965) [BDRip 1080p, Профессиональный (многоголосый, закадровый) + Оригинал (Немецкий)] Пирамида сынов Солнца / Die Pyramide des Sonnengottes (Роберт Сьодмак, Приключения, вестерн, 1965) [BDRip 1080p, Профессиональный (многоголосый, закадровый) + Оригинал (Немецкий)] " />

Аплоадер: Админ, дата: 17-02-2013, 18:42, торрент скачан: 359 раз

Понравилась раздача? Посмотрите эти:
  • Грязь / Filth (Джон С. Бейрд, криминал, драма, комедия, 2013) [BDRip-AVC, ...
  • Даю год / I Give It a Year (Дэн Мазер, Мелодрама, Комедия, 2013) [BDRip-AVC ...
  • О чём молчат девушки (Карен Оганесян, Комедия, 2013) [BDRip-AVC, Не требует ...
  • Жизнь Пи / Life Of Pi (Энг Ли, Драма, приключения, 2012) [BDRip 1080p, Проф ...
  • Суррогат / The Sessions (Бен Луин, драма, 2012) [BDRip 720p, Профессиональн ...
  • Терминал / The Terminal (Стивен Спилберг, комедия, мелодрама, драма, 2004) ...
  • Жизнь прекрасна / La Vita è bella (Роберто Бениньи, Драма, мелодрама, комед ...
  • Мальчишник в Новом Орлеане / Mardi Gras: Spring Break (Фил Дорнфелд, Комеди ...
  • [3D] Шаг вперед 3D / Step Up 3D (Джон М. Чу, мелодрама, драма, музыка, 2010 ...
  • Секс по дружбе / Friends with Benefits (Уилл Глак, драма, мелодрама, комеди ...
  • Золушка (Надежда Кошеверова, Михаил Шапиро, мюзикл, фэнтези, мелодрама, 194 ...
  • Бриллиантовая рука (Леонид Гайдай, комедия, криминал, приключения, 1968) [B ...
  • Иван Царевич и Серый Волк (Владимир Торопчин, мультфильм, семейный, 2011) [ ...
  • Смешарики. Начало (Денис Чернов, Мелодрама, 2011) [BDRip 1080p, Не требуетс ...
  • Схватка / The Grey (Джо Карнахан, Боевик, 2012) [BDRip 720p, Профессиональн ...
  • Запрещенная реальность (Константин Максимов, фантастика, боевик, 2009) [BDR ...
  • Выкрутасы (Леван Габриадзе, мелодрама, комедия, спорт, 2011) [ВDRip 720p, Н ...
  • Ю-571 / U-571 (Джонатан Мостоу, Боевик, 2000) [BDRip - AVC, Дубляж + Субтит ...
  • [3D] Шаг вперед / Step Up (Джон М. Чу, драма, мелодрама, музыка, 2010) [B ...
  • Собачье сердце (Владимир Бортко, фантастика, драма, комедия, 1988) [BDRip 1 ...
  • Информация
    Посетители, находящиеся в группе Гости, не могут оставлять комментарии к данной публикации.