вход на сайт

Имя пользователя :
Пароль :

Восстановление пароля Регистрация
Том и Джерри: Полет на Марс / Tom and Jerry Blast Off to Mars! (Билл Копп, фантастика, комедия, семейный, мультфильм, 2005) [BDRip 720p, многоголосый, закадровый, авторский одноголосый 2 шт., оригинал, субтитры]
Рейтинг:
(голосов: 1)



[img]{THEME}/images/logopost.png[/img]



Том и Джерри: Полет на Марс / Tom and Jerry Blast Off to Mars!

Год выпуска: 2005
Страна: США
Жанр: мультфильм, фантастика, комедия, семейный

Режиссер: Билл Копп / Bill Kopp
В ролях: Джефф Беннетт, Кори Бертон, Кэтрин Фиоре, Брэд Гэррет, Джесс Харнелл, Том Кенни, Билл Копп, Роб Полсен, Фрэнк Уэлкер, Билли Уэст

Перевод 1: Профессиональный (многоголосый, закадровый)
Перевод 2: Авторский одноголосый С.Визгунов
Перевод 3: Авторский одноголосый В.Белов
Оригинальная звуковая дорожка: English
Cубтитры: English, French, Spanish
_________________________________________________________Описание: Выходит, что для своих погонь и проказ легендарные Том и Джерри уже использовали все возможные места на нашей старушке-Земле; и теперь забавные зверушки решают совершить вояж наМарс, чтобы повеселиться там от души! Вот, правда, марсиане оказались мелковаты: крошечные гуманоиды посчитали Тома свирепым галактическим монстром и решили расправиться с беднягой.
Марс атакует! А в это время маленький хитрый Джерри был по ошибке признан возвратившимся после долгого отсутствия космическим вождем марсиан. Смогут ли мышонок и кот отложить на время свои разногласия, чтобы спасти Землю от инопланетного вторжения? Ведь для этого потребуются все девять жизней кота Тома!
__________________________________________________________

Качество: BDRip 720p
Продолжительность: 01:14:27

Отчет MInfo ▼Format : Matroska
Format version : Version 4 / Version 2
File size : 3.94 GiB
Duration : 1h 14mn
Overall bit rate : 7 579 Kbps
Encoded date : UTC 2010-02-22 21:41:31
Writing application : mkvmerge v5.9.0 (On The Loose) built on Dec 9 2012 15:37:01
Writing library : libebml v1.3.0 + libmatroska v1.4.0
Video
ID : 1
Format : AVC
Format/Info : Advanced Video Codec
Format profile : [email protected]
Format settings, CABAC : Yes
Format settings, ReFrames : 9 frames
Codec ID : V_MPEG4/ISO/AVC
Duration : 1h 14mn
Bit rate : 4 000 Kbps
Width : 1 280 pixels
Height : 720 pixels
Display aspect ratio : 16:9
Frame rate : 23.976 fps
Color space : YUV
Chroma subsampling : 4:2:0
Bit depth : 8 bits
Scan type : Progressive
Bits/(Pixel*Frame) : 0.181
Stream size : 1.99 GiB (51%)
Writing library : x264 core 129 r2245kMod bc13772
Encoding settings : cabac=1 / ref=9 / deblock=1:-1:-1 / analyse=0x3:0x113 / me=tesa / subme=11 / psy=1 / fade_compensate=0.00 / psy_rd=1.05:0.05 / mixed_ref=1 / me_range=24 / chroma_me=1 / trellis=2 / 8x8dct=1 / cqm=0 / deadzone=21,11 / fast_pskip=0 / chroma_qp_offset=-3 / threads=6 / lookahead_threads=1 / sliced_threads=0 / nr=0 / decimate=1 / interlaced=0 / bluray_compat=0 / constrained_intra=0 / bframes=10 / b_pyramid=2 / b_adapt=2 / b_bias=0 / direct=3 / weightb=1 / open_gop=0 / weightp=2 / keyint=250 / keyint_min=23 / scenecut=40 / intra_refresh=0 / rc=2pass / mbtree=0 / bitrate=4000 / ratetol=1.0 / qcomp=0.75 / qpmin=0 / qpmax=69 / qpstep=4 / cplxblur=20.0 / qblur=0.5 / ip_ratio=1.40 / pb_ratio=1.30 / aq=3:1.00
Language : English
Default : Yes
Forced : No
Matrix coefficients : BT.709-5, BT.1361, IEC 61966-2-4 709, SMPTE RP177
Audio #1
ID : 2
Format : AC-3
Format/Info : Audio Coding 3
Mode extension : CM (complete main)
Codec ID : A_AC3
Duration : 1h 14mn
Bit rate mode : Constant
Bit rate : 384 Kbps
Channel(s) : 6 channels
Channel positions : Front: L C R, Side: L R, LFE
Sampling rate : 48.0 KHz
Bit depth : 16 bits
Compression mode : Lossy
Stream size : 205 MiB (5%)
Title : MVO
Language : Russian
Default : Yes
Forced : No
Audio #2
ID : 3
Format : AC-3
Format/Info : Audio Coding 3
Mode extension : CM (complete main)
Codec ID : A_AC3
Duration : 1h 14mn
Bit rate mode : Constant
Bit rate : 192 Kbps
Channel(s) : 2 channels
Channel positions : Front: L R
Sampling rate : 48.0 KHz
Bit depth : 16 bits
Compression mode : Lossy
Stream size : 102 MiB (3%)
Title : AVO .
b8b2f836d69aa83510f9f706a1deaf3d34d3b4d0Том и Джерри: Полет на Марс / Tom and Jerry Blast Off to Mars! (Билл Копп, фантастика, комедия, семейный, мультфильм, 2005) [BDRip 720p, многоголосый, закадровый, авторский одноголосый 2 шт., оригинал, субтитры] Том и Джерри: Полет на Марс / Tom and Jerry Blast Off to Mars! (Билл Копп, фантастика, комедия, семейный, мультфильм, 2005) [BDRip 720p, многоголосый, закадровый, авторский одноголосый 2 шт., оригинал, субтитры] " />

Аплоадер: Админ, дата: 21-01-2013, 13:52, торрент скачан: 359 раз

Понравилась раздача? Посмотрите эти:
  • Погнали! / Getaway (Кортни Соломон, боевик, криминал, 2013) [BDRip 720p, Пр ...
  • Посылка / The Package (Джесси Джонсон, боевик, 2013) [BDRip 720p, Профессио ...
  • Смерть на похоронах / Death at a Funeral (Нил ЛаБут, комедия, 2010) [BDRip ...
  • Том и Джерри: Полет на Марс / Tom and Jerry Blast Off to Mars (Билл Копп, м ...
  • Том и Джерри: Полет на Марс / Tom and Jerry Blast Off to Mars! (Билл Копп, ...
  • Безопасность не гарантируется / Safety Not Guaranteed (Колин Треворроу, фан ...
  • Водитель / The Driver (Уолтер Хилл, Боевик, триллер, драма, криминал, 1978) ...
  • Убить по расписанию / Ticking Clock (Эрни Барбараш, фантастика, боевик, три ...
  • Цельнометаллическая оболочка / Full Metal Jacket (Стэнли Кубрик, драма, вое ...
  • Пир / Feast (Джон Гулажер, ужасы, боевик, триллер, комедия, 2005) [BDRip-AV ...
  • Пятница 13-е / Friday the 13th (Шон С. Каннингэм, ужасы, триллер, детектив, ...
  • Пятница 13-е Часть III / Friday the 13th Part III (Стив Майнер, ужасы, трил ...
  • Геркулес / Hercules (Рон Клементс, Джон Маскер, Мультфильм, 1997 г.)[HDTVRi ...
  • Один Дома / Home Alone (Крис Коламбус, комедия, приключения, семейный, 1990 ...
  • Один дома 2: Затерянный в Нью-Йорке / Home Alone 2: Lost in New York (Крис ...
  • Чаббчаббы спасают Рождество / The Chubbchubbs Save Xmas (Коуди Камерон, мул ...
  • Красавчик Джонни / Johnny Handsome (Уолтер Хилл, Триллер, драма, криминал, ...
  • Рыжий пес / Red Dog (Крив Стендерс, драма, комедия, семейный, 2011) [BDRip ...
  • Китайский квартал / Chinatown (Роман Полански, Триллер, драма, криминал, де ...
  • Викинги / Outlander (Ховард МакКейн, Фантастика, боевик, приключения, 2008) ...
  • Том и Джерри: Полет на Марс / Tom and Jerry Blast Off to Mars! (Билл Копп, ...
  • Том и Джерри: Быстрый и Пушистый / Tom and Jerry: The Fast and the Furry (Б ...
  • Том и Джерри: Быстрый и бешеный / Tom and Jerry: The Fast and the Furry (Би ...
  • Том и Джерри: Быстрый и бешеный / Tom and Jerry: The Fast and the Furry (Би ...
  • Том и Джерри: Полет на Марс / Tom and Jerry Blast Off to Mars! (Билл Копп, ...
  • Информация
    Посетители, находящиеся в группе Гости, не могут оставлять комментарии к данной публикации.