вход на сайт

Имя пользователя :
Пароль :

Восстановление пароля Регистрация
Секретная служба Санта-Клауса / Arthur Christmas (Сара Смит, Бэрри Кук, Мультфильм, драма, комедия, семейный, 2011) [BDRip 1080p, Дубляж, Ukrainian, Оригинал (английский), Sub]
Рейтинг:
(голосов: 1)



[img]{THEME}/images/logopost.png[/img]



Секретная служба Санта-Клауса / Arthur Christmas
«А вам слабо развезти 2 миллиарда подарков за одну ночь?»


Год выпуска: 2011
Страна: Великобритания, США
Производство: Sony Pictures Animation, Aardman Animations
Жанр: Мультфильм, драма, комедия, семейный

Режиссёр: Сара Смит, Бэрри Кук
В ролях: Джеймс МакЭвой, Хью Лори, Билл Найи, Джим Броудбент, Имелда Стонтон, Эшли Дженсен, Марк Вуттон, Лора Линни, Ева Лонгория, Рамона Маркес

Перевод: Дубляж, Ukrainian, Оригинал (английский)
Субтитры: Russian, English

Описание: Фильм приоткрывает завесу тайны над тем, каким образом Санта-Клаусу удается развезти подарки всем детям на Земле всего за одну ночь.

Релиз от:




Качество: BDRip 1080p |
Продолжительность: 01:37:32 час.

Формат: MKV
Видео кодек: x264
Аудио кодек: AC3, DTS
Видео: 1920x1040(16:9), 23.976fps, x264 ~10.7 mb/s , 0.223 bit/pixel
Аудио#1: 48 kHz, AC3, 3/2 (L,C,R,l,r) + LFE ch, ~640.00 kbps avg - (Дубляж)
Аудио#2: 48 kHz, AC3, 3/2 (L,C,R,l,r) + LFE ch, ~640.00 kbps avg - (Ukrainian)
Аудио#3: DTS, 48 kHz/16-bit, 3/2 (L,C,R,l,r) + LFE ch, ~1510 kbps avg- (Оригинал)

Дата премьеры (мир): 11 ноября 2011
Дата премьеры (РФ): 8 декабря 2011, «WDSSPR»

MediaInfo ▼
Общее
Полное имя : Arthur.Christmas.2011.1080p.BluRay.Rus.Ukr.Eng.HDCLUB.mkv
Формат : Matroska
Версия формата : Version 2
Размер файла : 9,19 Гбайт
Продолжительность : 1 ч. 37 м.
Общий поток : 13,5 Мбит/сек
Название фильма : Arthur Christmas (2011) - Release for HDCLUB
Дата кодирования : UTC 2012-11-11 20:38:45
Программа кодирования : mkvmerge v3.4.0 (Rapunzel) built on May 15 2010 09:38:20
Библиотека кодирования : libebml v0.8.0 + libmatroska v0.9.0

Видео
Идентификатор : 1
Формат : AVC
Формат/Информация : Advanced Video Codec
Профиль формата : [email protected]
Параметр CABAC формата : Да
Параметр ReFrames формата : 4 кадра
Идентификатор кодека : V_MPEG4/ISO/AVC
Продолжительность : 1 ч. 37 м.
Битрейт : 10,7 Мбит/сек
Ширина : 1920 пикселей
Высота : 1040 пикселей
Соотношение сторон : 16:9
Частота кадров : 23,976 кадра/сек
Цветовое пространство : YUV
Субдискретизация насыщенности : 4:2:0
Битовая глубина : 8 бит
Тип развёртки : Прогрессивная
Бит/(Пиксели*Кадры) : 0.223
Размер потока : 7,11 Гбайт (77%)
Заголовок : Release for HDCLUB
Библиотека кодирования : x264 core 128 r2216+688+33 06dac27 tMod+MixAQ [[email protected]:2:0 X86_64]
Настройки программы : cabac=1 / ref=4 / deblock=1:-1:-1 / analyse=0x3:0x113 / me=umh / subme=11 / psy=1 / fade_compensate=0.00 / psy_rd=0.90:0.00 / mixed_ref=1 / me_range=48 / chroma_me=1 / trellis=2 / 8x8dct=1 / cqm=0 / deadzone=21,11 / fast_pskip=0 / chroma_qp_offset=-2 / threads=18 / lookahead_threads=3 / sliced_threads=0 / nr=0 / decimate=0 / interlaced=0 / bluray_compat=0 / constrained_intra=0 / fgo=0 / bframes=8 / b_pyramid=2 / b_adapt=2 / b_bias=0 / direct=3 / weightb=1 / open_gop=0 / weightp=2 / keyint=240 / keyint_min=24 / scenecut=40 / intra_refresh=0 / rc_lookahead=240 / rc=2pass / mbtree=1 / bitrate=10700 / ratetol=1.0 / qcomp=0.70 / qpmin=0 / qpmax=69 / qpstep=4 / cplxblur=20.0 / qblur=0.5 / ip_ratio=1.15 / aq=4 / aq-strength=1.05 / aq-sensitivity=10.00 / aq-ifactor=1.00 / aq-pfactor=1.00 / aq-bfactor=1.00 / aq2=0
Язык : English
Default : Нет
Forced : Нет

Аудио #1
Идентификатор : 2
Формат : AC-3
Формат/Информация : Audio Coding 3
Расширение режима : CM (complete main)
Идентификатор кодека : A_AC3
Продолжительность : 1 ч. 37 м.
Вид битрейта : Постоянный
Битрейт : 640 Кбит/сек
Каналы : 6 каналов
Расположение каналов : Front: L C R, Side: L R, LFE
Частота : 48,0 КГц
Битовая глубина : 16 бит
Метод сжатия : С потерями
Размер потока : 447 Мбайт (5%)
Заголовок : AC3 5.1 @ 640 kbps - Дублированный, Blu-ray
Язык : Russian
Default : Да
Forced : Нет

Аудио #2
Идентификатор : 3
Формат : AC-3
Формат/Информация : Audio Coding 3
Расширение режима : CM (complete main)
Идентификатор кодека : A_AC3
Продолжительность : 1 ч. 37 м.
Вид битрейта
f9097e98a027a8d15886a75bfb3b448348daaf49Секретная служба Санта-Клауса / Arthur Christmas (Сара Смит, Бэрри Кук, Мультфильм, драма, комедия, семейный, 2011) [BDRip 1080p, Дубляж, Ukrainian, Оригинал (английский), Sub] Секретная служба Санта-Клауса / Arthur Christmas (Сара Смит, Бэрри Кук, Мультфильм, драма, комедия, семейный, 2011) [BDRip 1080p, Дубляж, Ukrainian, Оригинал (английский), Sub] " />

Аплоадер: Админ, дата: 12-11-2012, 14:20, торрент скачан: 359 раз

Понравилась раздача? Посмотрите эти:
  • Одноклассники 2 / Grown Ups 2 (Деннис Дуган, комедия, 2013) [BDRip 1080p, Д ...
  • Византия / Byzantium (Нил Джордан, Фэнтези, триллер, драма, 2012) [BDRip 10 ...
  • Исходный код / Source Code (Дункан Джонс, фантастика, боевик, триллер, драм ...
  • [3D] Мадагаскар 3 / Madagascar 3: Europes Most Wanted (Эрик Дарнелл, Том Ма ...
  • Санта на продажу / Rare Exports (Ялмари Хеландер, фэнтези, боевик, комедия, ...
  • Убойное Рождество Гарольда и Кумара / A Very Harold & Kumar Christmas (Тодд ...
  • Секретная служба Санта-Клауса / Arthur Christmas (Сара Смит, Комедия, драма ...
  • Секретная служба Санта-Клауса / Arthur Christmas (Сара Смит, Бэрри Кук, Мул ...
  • Секретная служба Санта-Клауса / Arthur Christmas (Сара Смит, Бэрри Кук, Мул ...
  • Секретная служба Санта-Клауса / Arthur Christmas (Сара Смит, Бэрри Кук, мул ...
  • [3D] Мадагаскар 3 / Madagascar 3: Europes Most Wanted (Эрик Дарнелл, Том Ма ...
  • [3D] Секретная служба Санта-Клауса / Arthur Christmas (Сара Смит, Бэрри Кук ...
  • [3D] Секретная служба Санта-Клауса / Arthur Christmas (Сара Смит, Бэрри Кук ...
  • Секретная служба Санта-Клауса / Arthur Christmas (Сара Смит, Бэрри Кук, Мул ...
  • Резня /Carnage (Роман Полански, драма, комедия, 2011) [BDRip 1080p, Дублиро ...
  • 1+1 / Неприкасаемые / Intouchables (Оливье Накаш, Эрик Толедано, Драма, 201 ...
  • Лето. Одноклассники. Любовь / LOL (Лиза Азуэлос, Драма, мелодрама, комедия, ...
  • Счастливчик / The Lucky One (Скотт Хикс, Драма, мелодрама, 2012) [BDRip 108 ...
  • Секретная служба Санта-Клауса / Arthur Christmas (Сара Смит, Бэрри Кук, Мул ...
  • Монстры на каникулах / Hotel Transylvania (Генндий Тартаковский, Мультфильм ...
  • [iPhone, iPod] Секретная служба Санта-Клауса / Arthur Christmas (Сара Смит, ...
  • Нико 2 / Niko 2: Lentajaveljekset (Кари Юуусонен, Юрген Лердам, Мультфильм, ...
  • Секретная служба Санта-Клауса / Arthur Christmas (Сара Смит, Бэрри Кук, Мул ...
  • Секретная служба Санта-Клауса / Arthur Christmas (Сара Смит, Бэрри Кук, Мул ...
  • Секретная служба Санта-Клауса / Arthur Christmas (Сара Смит, Бэрри Кук, Мул ...
  • Информация
    Посетители, находящиеся в группе Гости, не могут оставлять комментарии к данной публикации.