вход на сайт

Имя пользователя :
Пароль :

Восстановление пароля Регистрация
Сид, инструкция по выживанию / Surviving Sid (Гален Т. Чу, Карен Дишер, мультфильм, короткометражка, 2008) [BDRemux 1080p, дубляж + одноголосый + оригинал + Rus Sub]
Рейтинг:
(голосов: 1)



[img]{THEME}/images/logopost.png[/img]



Сид, инструкция по выживанию / Surviving Sid


Год выпуска: 2008
Страна: США
Производство: Blue Sky Studios
Жанр: мультфильм, короткометражка

Режиссёр: Гален Т. Чу, Карен Дишер
В ролях: Шэйн Баумель, Пол Батчер, Шон Майкл Каннингэм, Карен Дишер, Хамани Гриффин, Джон Хокинсон, Мария Лэрк, Джон Легуизамо, Эмили Осмент, Крис Уэдж

Перевод:
- Профессиональный (дублированный)
- Любительский (Одноголосый закадровый) (АТОМ)
- Оригинал (Английский)
Субтитры: Русские

Описание: Сид ведёт детей в поход, попадая на пути во всевозможные передряги. В конце концов дети устают от бесконечных глупостей ленивца и берут предводительство в свои руки.



Качество: BDRemux 1080p
Продолжительность: 00:07:59

Формат: MKV
Главы: (нет)
Видео кодек: MPEG4
Аудио кодек: AC3
Видео: 1920x1080р (16:9) at 23,976 fps, MPEG-4 AVC, ~22 Мbps avg, Main Profile 4.1, 0.442 bit/pixel
Аудио: 48.0 kHz, 2ch, ~224 kbps avg (Дубляж)
Аудио: 48.0 kHz, 2ch, ~192 kbps avg (VO)
Аудио: 48.0 kHz, 6ch, ~448 kbps avg (ENG)

MediaInfo ▼
Общее
Уникальный идентификатор : 249109396939337611754513898626810533272 (0xBB68B985E5E49A67A0193CDE53025598)
Полное имя : F:Сид, инструкция по выживаниюSurviving Sid.2008.BDRemux 1080p.DUB.VO.ENG.SUB.mkv
Формат : Matroska
Версия формата : Version 2
Размер файла : 1,30 Гбайт
Продолжительность : 7 м. 59 с.
Режим общего битрейта : Переменный
Общий поток : 23,3 Мбит/сек
Дата кодирования : UTC 2012-06-27 15:48:09
Программа кодирования : mkvmerge v5.5.0 (Healer) built on Apr 24 2012 23:47:03
Библиотека кодирования : libebml v1.2.3 + libmatroska v1.3.0

Видео
Идентификатор : 1
Формат : AVC
Формат/Информация : Advanced Video Codec
Профиль формата : [email protected]
Параметр CABAC формата : Да
Параметр ReFrames формата : 4 кадра
Идентификатор кодека : V_MPEG4/ISO/AVC
Продолжительность : 7 м. 59 с.
Вид битрейта : Переменный
Битрейт : 22,0 Мбит/сек
Максимальный битрейт : 40,0 Мбит/сек
Ширина : 1920 пикселей
Высота : 1080 пикселей
Соотношение сторон : 16:9
Частота кадров : 23,976 кадра/сек
Цветовое пространство : YUV
Субдискретизация насыщенности : 4:2:0
Битовая глубина : 8 бит
Тип развёртки : Прогрессивная
Бит/(Пиксели*Кадры) : 0.442
Размер потока : 1,23 Гбайт (94%)
Default : Да
Forced : Нет
Основные цвета : BT.709-5, BT.1361, IEC 61966-2-4, SMPTE RP177
Характеристики трансфера : BT.709-5, BT.1361
Коэффициенты матрицы : BT.709-5, BT.1361, IEC 61966-2-4 709, SMPTE RP177

Аудио #1
Идентификатор : 2
Формат : AC-3
Формат/Информация : Audio Coding 3
Профиль формата : Dolby Digital
Расширение режима : CM (complete main)
Идентификатор кодека : A_AC3
Продолжительность : 7 м. 59 с.
Вид битрейта : Постоянный
Битрейт : 224 Кбит/сек
Каналы : 2 канала
Расположение каналов : Front: L R
Частота : 48,0 КГц
Битовая глубина : 16 бит
Метод сжатия : С потерями
Размер потока : 12,8 Мбайт (1%)
Заголовок : DUB
Язык : Russian
Default : Да
Forced : Да

Аудио #2
Идентификатор : 3
Формат : AC-3
Формат/Информация : Audio Coding 3
Расширение режима : CM (complete main)
Идентификатор кодека : A_AC3
Продолжительность : 7 м. 59 с.
Вид битрейта : Постоянный
Битрейт : 192 Кбит/сек
Каналы : 2 канала
Расположение каналов : Front: L R
Частота : 48,0 КГц
Битовая глубина : 16 бит
Метод сжатия : С потерями
Размер потока : 11,0 Мбайт (1%)
Заголовок : VO (АТОМ)
Язык : Russian
Default : Нет
Forced : Нет

Аудио #3
Идентификатор : 4
Формат : AC-3
Формат/Информация : Audio Coding 3
Расширение режима : CM (complete main)
Идентификатор кодека : A_AC3
Продолжительность : 7 м. 59 с.
Вид битрейта : Постоянный
Битрейт : 448 Кбит/сек
Каналы : 6 каналов
Расположение каналов : Front: L C R, Side: L R, LFE
Частота : 48,0 КГц
Битовая глубина : 16 бит
Метод сжатия : С потерями
Размер потока : 25,6 Мбайт (2%)
Заголовок : ENG
Язык : English
Default : Нет
Forced : Нет

Текст
Идентификатор : 5
Формат : UTF-8
Идентификатор кодек
8970f344003305921992e35b85932bd509f99bacСид, инструкция по выживанию / Surviving Sid (Гален Т. Чу, Карен Дишер, мультфильм, короткометражка, 2008) [BDRemux 1080p, дубляж + одноголосый + оригинал + Rus Sub] Сид, инструкция по выживанию / Surviving Sid (Гален Т. Чу, Карен Дишер, мультфильм, короткометражка, 2008) [BDRemux 1080p, дубляж + одноголосый + оригинал + Rus Sub] " />

Аплоадер: Админ, дата: 1-09-2012, 02:11, торрент скачан: 359 раз

Понравилась раздача? Посмотрите эти:
  • Географ глобус пропил (Александр Велединский, Драма, 2013) [BDRemux 1080p , ...
  • Va-банк / Runner Runner (Брэд Фурман, триллер, драма, криминал, 2013) [BDRe ...
  • Солдаты напрокат (Сергей Клишин, Дмитрий Бышов, документальный, 2013) [HDTV ...
  • Мужчина: Инструкция по применению / Mens Manual (Ли Вон Сок, Комедия, 2013) ...
  • Копы в юбках / The Heat [UNRATED] (Пол Фиг, комедия, криминал, боевик, дете ...
  • Больше чем мёд / More Than Honey (документальный, 2012) [BDRemux 1080p, Про ...
  • Лего: Звёздные войны - Награда бомбада / LEGO: Star wars - Вombad Bounty (П ...
  • Эскадрилья "Лафайет" / Flyboys (Тони Билл, Боевик, драма, мелодрама, приклю ...
  • Сид, инструкция по выживанию / Surviving Sid (Гален Т. Чу, Карен Дишер, мул ...
  • Сид, инструкция по выживанию / Surviving Sid (Гален Т. Чу / Galen T. Chu, К ...
  • Безумные мелодии: Кажется я видел котика / Looney Tunes: I Tawt I Taw а Pud ...
  • Запрещенный прием / Sucker Punch (Зак Снайдер, Фэнтези, 2011) [BDRemux 108 ...
  • Ледниковый период: Гигантское Рождество / Ice Age: A Mammoth Christmas (Кар ...
  • Аноним / Anonymous (Роланд Эммерих / Roland Emmerich, триллер, драма, 2011) ...
  • Транзит / Transit (Антонио Негрет, боевик, триллер, драма, криминал, 2011) ...
  • Хищники / Predators (Нимрод Антал, Фантастика, Боевик, Триллер, Приключения ...
  • Диктатор / The Dictator (Ларри Чарльз, Комедия, 2012) [BD-Remux 1080p, Дубл ...
  • Счастливчик / The Lucky One (Скотт Хикс, Драма, мелодрама, 2012) [BD-Remux ...
  • Скрат: Потерянный орех / Scrat: Gone Nutty (Carlos Saldanha, мультфильм, к ...
  • Скарат: Не время для орехов / Scrat: No Time For Nuts (Крис Рено, Майк Тёр ...
  • В ритме сердца / Sur le rythme (Шарль Оливье-Мишо, Мелодрама, 2011) [BD-Rem ...
  • Супер Майк / Magic Mike (Стивен Содерберг, Драма, комедия, 2012) [BD-Remux ...
  • Эволюция Борна / The Bourne Legacy (Тони Гилрой, боевик, триллер, детектив, ...
  • Ледниковый период:Выживание Сида / Suriving Sid (Гален Т. Чу, Карен Дишер,м ...
  • Сдохни, Джон Такер / John Tucker Must Die (Бетти Томас, мелодрама, комедия, ...
  • Информация
    Посетители, находящиеся в группе Гости, не могут оставлять комментарии к данной публикации.