вход на сайт

Имя пользователя :
Пароль :

Восстановление пароля Регистрация
Скарат: Не время для орехов / Scrat: No Time For Nuts (Крис Рено, Майк Тёрмайер, мультфильм, короткометражка, комедия, приключения, семейный, 2006г.) [BDRemux 1080p, Не требуется]
Рейтинг:
(голосов: 1)



[img]{THEME}/images/logopost.png[/img]




Скарат: Не время для орехов / Scrat: No Time For Nuts


Год выпуска: 2006
Страна: США
Производство: Blue Sky Studios
Жанр: мультфильм, короткометражка, комедия, приключения, семейный

Режиссёр: Крис Рено, Майк Тёрмайер
В ролях: Крис Уэдж

Перевод: Не требуется
Субтитры: нет

Описание: Полюбившаяся всем саблезубая белка из «Ледникового периода» в небольшом мульте, в котором она находит машину времени и…



Качество: BDRemux 1080p
Продолжительность: 00:07:07

Формат: MKV
Главы: (нет)
Видео кодек: MPEG-4
Аудио кодек: AC3
Видео: 1920x1080р (16:9) at 23,976 fps, MPEG-4 AVC, ~22,1 Мbps avg, Main Profile 4.1, 0.444 bit/pixel
Аудио: 48.0 kHz, AC3, 3/2 (L,C,R,l,r) + LFE ch, ~640 kbps avg

MediaInfo ▼
Общее
Уникальный идентификатор : 190399383250763699125198733186818167186 (0x8F3D965D320D64F28A8FA36C9314D192)
Полное имя : D:Скарат. Не время для ореховScrat.No Time For Nuts.2006. BDRemux 1080p.mkv
Формат : Matroska
Версия формата : Version 2
Размер файла : 1,15 Гбайт
Продолжительность : 7 м. 7 с.
Режим общего битрейта : Переменный
Общий поток : 23,0 Мбит/сек
Дата кодирования : UTC 2012-07-11 07:42:18
Программа кодирования : mkvmerge v5.7.0 (The Whirlwind) built on Jul 8 2012 20:08:51
Библиотека кодирования : libebml v1.2.3 + libmatroska v1.3.0

Видео
Идентификатор : 1
Формат : AVC
Формат/Информация : Advanced Video Codec
Профиль формата : [email protected]
Параметр CABAC формата : Да
Параметр ReFrames формата : 4 кадра
Идентификатор кодека : V_MPEG4/ISO/AVC
Продолжительность : 7 м. 7 с.
Вид битрейта : Переменный
Битрейт : 22,1 Мбит/сек
Максимальный битрейт : 40,0 Мбит/сек
Ширина : 1920 пикселей
Высота : 1080 пикселей
Соотношение сторон : 16:9
Частота кадров : 23,976 кадра/сек
Цветовое пространство : YUV
Субдискретизация насыщенности : 4:2:0
Битовая глубина : 8 бит
Тип развёртки : Прогрессивная
Бит/(Пиксели*Кадры) : 0.444
Размер потока : 1,10 Гбайт (96%)
Default : Да
Forced : Нет
Основные цвета : BT.709-5, BT.1361, IEC 61966-2-4, SMPTE RP177
Характеристики трансфера : BT.709-5, BT.1361
Коэффициенты матрицы : BT.709-5, BT.1361, IEC 61966-2-4 709, SMPTE RP177

Аудио
Идентификатор : 2
Формат : AC-3
Формат/Информация : Audio Coding 3
Расширение режима : CM (complete main)
Параметр Endianness формата : Big
Идентификатор кодека : A_AC3
Продолжительность : 7 м. 7 с.
Вид битрейта : Постоянный
Битрейт : 448 Кбит/сек
Каналы : 6 каналов
Расположение каналов : Front: L C R, Side: L R, LFE
Частота : 48,0 КГц
Битовая глубина : 16 бит
Метод сжатия : С потерями
Размер потока : 22,8 Мбайт (2%)
Default : Да
Forced : Нет





b03471bd2c70058449ab3a42013cce2b71f66d22 Скарат: Не время для орехов / Scrat: No Time For Nuts (Крис Рено, Майк Тёрмайер, мультфильм, короткометражка, комедия, приключения, семейный, 2006г.) [BDRemux 1080p, Не требуется] Скарат: Не время для орехов / Scrat: No Time For Nuts (Крис Рено, Майк Тёрмайер, мультфильм, короткометражка, комедия, приключения, семейный, 2006г.) [BDRemux 1080p, Не требуется] " />

Аплоадер: Админ, дата: 1-09-2012, 01:58, торрент скачан: 359 раз

Понравилась раздача? Посмотрите эти:
  • Kara / Pandora [2012, KPop, BDRemux]
  • Britney Spears / Hold It Against Me [2011, Pop, BDRemux]
  • Больше чем мёд / More Than Honey (документальный, 2012) [BDRemux 1080p, Про ...
  • Лего: Звёздные войны - Награда бомбада / LEGO: Star wars - Вombad Bounty (П ...
  • История игрушек: Гавайские каникулы / Toy Story Toons: Hawaiian Vacation (м ...
  • Не время для орехов / No Time for Nuts (Крис Рено, Майк Трумейер, мультфиль ...
  • Белка: Не время для орехов / Scrat: No Time for Nuts (Крис Рено, Майк Труме ...
  • Скрат: Потерянный орех / Scrat: Gone Nutty (Карлос Салдана, короткометражка ...
  • Гадкий Я: Мини-фильмы / Despicable Me: Mini-Movies (Kyle Balda, Samuel Tour ...
  • Ледниковый период: Гигантское Рождество / Ice Age: A Mammoth Christmas (Кар ...
  • Большой Бак / Big Buck Bunny (Саша Гэдегебуре, мультфильм, короткометражка ...
  • Лего Звездные войны: Поиск R2-D2 / LEGO Star Wars: The Quest for R2-D2 (Пед ...
  • Закон доблести / Act of Valor (Майк МакКой, Скотт Во, Крис Миллер, Боевик, ...
  • Двигай время! / Los ilusionautas (Эдуардо Шульдт, Мультфильм, фэнтези, прик ...
  • Хищники / Predators (Нимрод Антал, Фантастика, Боевик, Триллер, Приключения ...
  • Лоракс: Серенада / The Lorax: Serenade (Кайл Балда, мультфильм, комедия, му ...
  • Скрат: Потерянный орех / Scrat: Gone Nutty (Carlos Saldanha, мультфильм, к ...
  • Сид, инструкция по выживанию / Surviving Sid (Гален Т. Чу, Карен Дишер, мул ...
  • Супер Майк / Magic Mike (Стивен Содерберг, Драма, комедия, 2012) [BD-Remux ...
  • Белка: Не время для орехов / Scrat: No Time for Nuts (Крис Рено, Майк Турма ...
  • Информация
    Посетители, находящиеся в группе Гости, не могут оставлять комментарии к данной публикации.