вход на сайт

Имя пользователя :
Пароль :

Восстановление пароля Регистрация
Скрат: Потерянный орех / Scrat: Gone Nutty (Carlos Saldanha, мультфильм, короткометражка, комедия, семейный, 2002) [BDRemux 1080p, Не требуется]
Рейтинг:
(голосов: 1)



[img]{THEME}/images/logopost.png[/img]



Скрат: Потерянный орех / Scrat: Gone Nutty

Год выпуска: 2002
Страна: США
Производство: 20th Century Fox Animation, 20th Century Fox Film Corporation, Blue Sky Studios
Жанр: мультфильм, короткометражка, комедия, семейный

Режиссёр: Carlos Saldanha
В ролях: Крис Уэдж

Перевод: Не требуется
Субтитры: нет

Описание:Знаменитая белка из «Ледникового периода» гоняется за орехами в процессе полета с обрыва до земли



Качество: BDRemux 1080p
Продолжительность: 00:04:46

Формат: MKV
Главы: (нет)
Видео кодек: MPEG-4
Аудио кодек: AC3
Видео: 1920x1080р (16:9) at 23,976 fps, MPEG-4 AVC, ~20,9 Мbps avg, Main Profile 4.1, 0.420 bit/pixel
Аудио: 48.0 kHz, AC3, 3/2 (L,C,R,l,r) + LFE ch, ~640 kbps avg


MediaInfo ▼
Общее
Уникальный идентификатор : 204245262280569081291743625399703137651 (0x99A834E7D606EE4DBD3DAB07438F6D73)
Полное имя : D:Скрат. Потерянный орех BDRemux 1080pScrat.Gone nutty.2002.BDRemux 1080p.mkv
Формат : Matroska
Версия формата : Version 2
Размер файла : 751 Мбайт
Продолжительность : 4 м. 46 с.
Режим общего битрейта : Переменный
Общий поток : 22,0 Мбит/сек
Дата кодирования : UTC 2012-07-16 04:08:02
Программа кодирования : mkvmerge v5.7.0 (The Whirlwind) built on Jul 8 2012 20:08:51
Библиотека кодирования : libebml v1.2.3 + libmatroska v1.3.0

Видео
Идентификатор : 1
Формат : AVC
Формат/Информация : Advanced Video Codec
Профиль формата : [email protected]
Параметр CABAC формата : Да
Параметр ReFrames формата : 4 кадра
Идентификатор кодека : V_MPEG4/ISO/AVC
Продолжительность : 4 м. 46 с.
Вид битрейта : Переменный
Битрейт : 20,9 Мбит/сек
Максимальный битрейт : 40,0 Мбит/сек
Ширина : 1920 пикселей
Высота : 1080 пикселей
Соотношение сторон : 16:9
Частота кадров : 23,976 кадра/сек
Цветовое пространство : YUV
Субдискретизация насыщенности : 4:2:0
Битовая глубина : 8 бит
Тип развёртки : Прогрессивная
Бит/(Пиксели*Кадры) : 0.420
Размер потока : 714 Мбайт (95%)
Default : Да
Forced : Нет
Основные цвета : BT.709-5, BT.1361, IEC 61966-2-4, SMPTE RP177
Характеристики трансфера : BT.709-5, BT.1361
Коэффициенты матрицы : BT.709-5, BT.1361, IEC 61966-2-4 709, SMPTE RP177

Аудио
Идентификатор : 2
Формат : AC-3
Формат/Информация : Audio Coding 3
Расширение режима : CM (complete main)
Параметр Endianness формата : Big
Идентификатор кодека : A_AC3
Продолжительность : 4 м. 46 с.
Вид битрейта : Постоянный
Битрейт : 640 Кбит/сек
Каналы : 6 каналов
Расположение каналов : Front: L C R, Side: L R, LFE
Частота : 48,0 КГц
Битовая глубина : 16 бит
Метод сжатия : С потерями
Задержка видео : 24 мс.
Размер потока : 21,9 Мбайт (3%)
Default : Да
Forced : Нет




cab3d70654cb560a1e6cfa36b695319f4e171fe2 Скрат: Потерянный орех / Scrat: Gone Nutty (Carlos Saldanha, мультфильм, короткометражка, комедия, семейный, 2002) [BDRemux 1080p, Не требуется] Скрат: Потерянный орех / Scrat: Gone Nutty (Carlos Saldanha, мультфильм, короткометражка, комедия, семейный, 2002) [BDRemux 1080p, Не требуется] " />

Аплоадер: Админ, дата: 1-09-2012, 01:44, торрент скачан: 359 раз

Понравилась раздача? Посмотрите эти:
  • Географ глобус пропил (Александр Велединский, Драма, 2013) [BDRemux 1080p , ...
  • Va-банк / Runner Runner (Брэд Фурман, триллер, драма, криминал, 2013) [BDRe ...
  • Солдаты напрокат (Сергей Клишин, Дмитрий Бышов, документальный, 2013) [HDTV ...
  • Kara / Pandora [2012, KPop, BDRemux]
  • Britney Spears / Hold It Against Me [2011, Pop, BDRemux]
  • Копы в юбках / The Heat [UNRATED] (Пол Фиг, комедия, криминал, боевик, дете ...
  • Больше чем мёд / More Than Honey (документальный, 2012) [BDRemux 1080p, Про ...
  • Лего: Звёздные войны - Награда бомбада / LEGO: Star wars - Вombad Bounty (П ...
  • Britney Spears / I Wanna Go [2011, Pop, Dance, BDRemux]
  • История игрушек: Гавайские каникулы / Toy Story Toons: Hawaiian Vacation (м ...
  • Белка: Не время для орехов / Scrat: No Time for Nuts (Крис Рено, Майк Труме ...
  • Скрат: Потерянный орех / Scrat: Gone Nutty (Карлос Салдана, короткометражка ...
  • Гадкий Я: Мини-фильмы / Despicable Me: Mini-Movies (Kyle Balda, Samuel Tour ...
  • Большой Бак / Big Buck Bunny (Саша Гэдегебуре, мультфильм, короткометражка ...
  • Лего Звездные войны: Поиск R2-D2 / LEGO Star Wars: The Quest for R2-D2 (Пед ...
  • Хищники / Predators (Нимрод Антал, Фантастика, Боевик, Триллер, Приключения ...
  • Скарат: Не время для орехов / Scrat: No Time For Nuts (Крис Рено, Майк Тёр ...
  • Сид, инструкция по выживанию / Surviving Sid (Гален Т. Чу, Карен Дишер, мул ...
  • Белка: Потерянный орех / Scrat: Gone Nutty (Карлос Салдана / Carlos Saldanh ...
  • Белка: Не время для орехов / Scrat: No Time for Nuts (Крис Рено, Майк Турма ...
  • Информация
    Посетители, находящиеся в группе Гости, не могут оставлять комментарии к данной публикации.