вход на сайт

Имя пользователя :
Пароль :

Восстановление пароля Регистрация
Миньоны / Minions (Пьер Коффин, Крис Рено, короткометражка, анимация, мультфильм, 2010) [BDRip 720p, Профессиональный (двухголосый закадровый) [Кубик в кубе] + Оригинал + Sub]
Рейтинг:
(голосов: 1)



[img]{THEME}/images/logopost.png[/img]



Миньоны : Minions

Год выпуска: 2010
Страна: США
Производство: Universal Studios
Жанр: короткометражка, анимация, мультфильм

Режиссёр: Пьер Коффин | Pierre Coffin, Крис Рено | Chris Reno

Перевод: 1 - Профессиональный (двухголосый закадровый) [Кубик в кубе]
2 - Оригинал (Английский)
Субтитры: softsub (SRT) | русские, английские, французские, испанские

Описание:
Жёлтые коротышки, служат армией и помощниками для Грю. Хотя и понимают человеческую речь, говорить по-человечески не умеют, но могут произносить отдельные слова, но чаще они общаются на своём языке между собой. Глуповатые, но очень полезные. Интересно, что у некоторых миньонов только один глаз. Замечательное дополнение к известному мультфильму "Гадкия я".

Качество: BDRip 720p
Продолжительность: 3 x ~ 00:04:00 мин.

Формат: MKV
Видео кодек: AVC
Аудио кодек: DTS
Видео: 1280x720 (16:9), 23.976 fps, H.264 ~4 000 kbps avg, 0.185 bit/pixel
Аудио #1: 48 kHz, DTS, 3/2 (L,C,R,l,r) + LFE ch, ~755.00 kbps avg | Профессиональный (двухголосый закадровый) [Кубик в кубе]
Аудио #2: 48 kHz, DTS, 3/2 (L,C,R,l,r) + LFE ch, ~755.00 kbps avg | Оригинал (Английский)
MediaInfo 1 серии Банан / Banana ▼Общее
Уникальный идентификатор : 216233696618980786549060193414250301379 (0xA2AD185A77561388A7A4298F46E907C3)
Полное имя : D:МиньоныMinony.2010.BDRip 720pBanana.2010.BDRip 720p.mkv
Формат : Matroska
Версия формата : Version 2
Размер файла : 136 Мбайт
Продолжительность : 3 м. 45 с.
Общий поток : 5069 Кбит/сек
Дата кодирования : UTC 2010-12-16 21:00:36
Программа кодирования : mkvmerge v4.4.0 (Die Wiederkehr) сборка от Oct 31 2010 21:52:48
Библиотека кодирования : libebml v1.0.0 + libmatroska v1.0.0
Видео
Идентификатор : 1
Формат : AVC
Формат/Информация : Advanced Video Codec
Профиль формата : [email protected]
Параметр CABAC формата : Да
Параметр ReFrames формата : 9 кадров
Идентификатор кодека : V_MPEG4/ISO/AVC
Продолжительность : 3 м. 45 с.
Битрейт : 4213 Кбит/сек
Ширина : 1280 пикселей
Высота : 720 пикселей
Соотношение сторон : 16:9
Частота кадров : 23,976 кадра/сек
Цветовое пространство : YUV
Субдискретизация насыщенности : 4:2:0
Битовая глубина : 8 бит
Тип развёртки : Прогрессивная
Бит/(Пиксели*Кадры) : 0.191
Размер потока : 113 Мбайт (83%)
Заголовок : Banana
Библиотека кодирования : x264 core 110 r1820 fdcf2ae
Настройки программы : cabac=1 / ref=9 / deblock=1:-3:-3 / analyse=0x3:0x113 / me=tesa / subme=10 / psy=1 / psy_rd=0.60:0.00 / mixed_ref=1 / me_range=16 / chroma_me=1 / trellis=2 / 8x8dct=1 / cqm=0 / deadzone=21,11 / fast_pskip=0 / chroma_qp_offset=-2 / threads=12 / sliced_threads=0 / nr=0 / decimate=0 / interlaced=0 / constrained_intra=0 / bframes=6 / b_pyramid=2 / b_adapt=2 / b_bias=0 / direct=3 / weightb=1 / open_gop=0 / weightp=2 / keyint=250 / keyint_min=23 / scenecut=40 / intra_refresh=0 / rc=crf / mbtree=0 / crf=16.0 / qcomp=0.60 / qpmin=0 / qpmax=51 / qpstep=4 / ip_ratio=1.40 / pb_ratio=1.30 / aq=1:1.00
Язык : English
Default : Да
Forced : Нет
Аудио
Идентификатор : 2
Формат : DTS
Формат/Информация : Digital Theater Systems
Идентификатор кодека : A_DTS
Продолжительность : 3 м. 45 с.
Вид битрейта : Постоянный
Битрейт : 755 Кбит/сек
Каналы : 6 каналов
Расположение каналов : Front: L C R, Side: L R, LFE
Частота : 48,0 КГц
Битовая глубина : 24 бит
Метод сжатия : С потерями
Задержка видео : 11 мс.
Размер потока : 20,3 Мбайт (15%)
Заголовок : DTS 5.1 768 kbps
Язык : English
Default : Да
Forced : Нет
Текст #1
Идентификатор : 3
Формат : UTF-8
Идентификатор кодека : S_TEXT/UTF8
Идентификатор кодека/Информация : UTF-8 Plain Text
Язык : Russian
Default : Да
Forced : Нет
Текст #2
Идентификатор : 4
Формат : UTF-8
Идентификатор кодека : S_TEXT/UTF8
Идентификатор кодека/Информация : UTF-8 Plain Text
Язык : English
Default : Нет
Forced : Нет
Т
0ab8b26f621e321888355792e33e7c6b6fecdb9cМиньоны / Minions (Пьер Коффин, Крис Рено, короткометражка, анимация, мультфильм, 2010) [BDRip 720p, Профессиональный (двухголосый закадровый) [Кубик в кубе] + Оригинал + Sub] Миньоны / Minions (Пьер Коффин, Крис Рено, короткометражка, анимация, мультфильм, 2010) [BDRip 720p, Профессиональный (двухголосый закадровый) [Кубик в кубе] + Оригинал + Sub] " />

Аплоадер: Админ, дата: 25-08-2012, 12:55, торрент скачан: 359 раз

Понравилась раздача? Посмотрите эти:
  • Гадкий я / Despicable Me (Пьер Коффин, Крис Рено, Мультфильм,комедия, семей ...
  • Гадкий я 2 / Despicable Me 2 (Пьер Соффин, Крис Рено, мультфильм, фантастик ...
  • Гадкий Я 2: Миньоны / Despicable Me 2: Minony (Пьер Коффин, Крис Рено, Коро ...
  • На выход! / Get out (Шарлотт Боисон, Жюльен Фоурвел, Паскаль Хен-Квен, Трис ...
  • Больше чем мёд / More Than Honey (документальный, 2012) [BDRip 720p, Профес ...
  • Человек с Земли / The Man from Earth (Ричард Шенкман, фантастика, драма, 20 ...
  • Начинающие / Beginners (Майк Миллс / Mike Mills, драма, мелодрама, комедия, ...
  • Убойное Рождество Гарольда и Кумара / A Very Harold & Kumar 3D Christmas (Т ...
  • Эд Вуд / Ed Wood (Тим Бёртон, драма, комедия, биография, 1994) [BDRip-AVC, ...
  • Гадкий Я / Despicable Me (Пьер Соффин, Крис Рено, мультфильм, комедия, крим ...
  • Белка: Не время для орехов / Scrat: No Time for Nuts (Крис Рено, Майк Труме ...
  • Сид, инструкция по выживанию / Surviving Sid (Гален Т. Чу / Galen T. Chu, К ...
  • Безумные мелодии: Кажется я видел котика / Looney Tunes: I Tawt I Taw а Pud ...
  • Безумные мелодии: Дорожный бегун и койот / Looney Tunes: Road Runner & Coyo ...
  • Скрат: Потерянный орех / Scrat: Gone Nutty (Карлос Салдана, короткометражка ...
  • [3D] Убойное Рождество Гарольда и Кумара 3D / A Very Harold & Kumar 3D Chri ...
  • Гадкий Я: Мини-фильмы / Despicable Me: Mini-Movies (Kyle Balda, Samuel Tour ...
  • История игрушек: Гавайские каникулы / Toy Story: Hawaiian Vacation (Гари ...
  • Лоракс: Серенада / The Lorax: Serenade (Кайл Балда, мультфильм, комедия, му ...
  • Павшая империя / Hirokin (Алехо Мо-Сан, фантастика, боевик, драма, приключе ...
  • Большой отрыв БОБа / B.O.B.s Big Break (Роберт Портер, короткометражка, ан ...
  • Миньоны / Minony (Пьер Коффин, Крис Рено, короткометражная анимация, 2010) ...
  • Миньоны / Minony (Пьер Коффин, Крис Рено, Короткометражная анимация, 2010) ...
  • Гадкий Я: Мини-фильмы / Despicable Me: Mini-Movies (Kyle Balda, Samuel Tour ...
  • Халк против Росомахи / Hulk Vs. Wolverine (Сэм Лью, Фрэнк Пор, боевик, прик ...
  • Информация
    Посетители, находящиеся в группе Гости, не могут оставлять комментарии к данной публикации.