вход на сайт

Имя пользователя :
Пароль :

Восстановление пароля Регистрация
Большой отрыв БОБа / B.O.B.s Big Break (Роберт Портер, короткометражка, анимация, мультфильм, 2009) [BDRip 720p, Профессиональный (полное дублирование) + Любительский (многоголосый, закадровый) + Оригинал + Sub]
Рейтинг:
(голосов: 1)



[img]{THEME}/images/logopost.png[/img]



Большой отрыв БОБа
B.O.B.s Big Break

Год выпуска: 2009
Страна: США
Производство: Dream Works
Жанр: короткометражка, анимация, мультфильм

Режиссёр: Роберт Портер | Robert Porter
В ролях: Майк Митчел | Mike Mitchell Невидимка, Уилл Арнетт | Will Arnett Звено, Хью Лори | Hugh Laurie Таракан, Сет Роген | Seth Rogen БОБ, Кифер Сазерленд | Kiefer Sutherland Генерал

Перевод: 1 - Профессиональный (полное дублирование)
2 - Любительский (многоголосый, закадровый) (SkyeFilmTV)
3 - Оригинал (Английский)
Субтитры: softsub (SRT) | русские [Rus Sub (original)], русские [Rus Sub], английские [Eng Sub (original)]

Описание:
У БОБа день рождения и друзья мутанты решили приготовить для него разрывной сюрприз.
Качество: BDRip 720p | BDRemux 1080
Продолжительность: 00:13:19 мин.

Формат: MKV
Видео кодек: AVC
Аудио кодек: AС3
Видео: 1280x720 (16:9), 23.976 fps, H.264 ~4 000 kbps avg, 0.181 bit/pixel
Аудио #1: 48.0 kHz, AC3, 3/2 (L,C,R,l,r) + LFE ch, ~640 kbps avg | Профессиональный (полное дублирование)
Аудио #2: 48.0 kHz, AC3, 3/2 (L,C,R,l,r) + LFE ch, ~448 kbps avg | Любительский (многоголосый, закадровый) (SkyeFilmTV)
Аудио #3: 48.0 kHz, AC3, 3/2 (L,C,R,l,r) + LFE ch, ~640 kbps avg | Оригинал (Английский)
MediaInfo ▼Общее
Уникальный идентификатор : 211134575765166736139187522877754162718 (0x9ED70A48FC2A40AA86C53E25B117BE1E)
Полное имя : C:Большой Отрыв БОБа 720pB.O.Bs Big Break.2009.BDRip 720p DUB+MVO+ENG+SUB.mkv
Формат : Matroska
Версия формата : Version 2
Размер файла : 547 Мбайт
Продолжительность : 13 м.
Общий поток : 5738 Кбит/сек
Дата кодирования : UTC 2012-07-12 07:54:38
Программа кодирования : mkvmerge v5.7.0 (The Whirlwind) built on Jul 8 2012 20:08:51
Библиотека кодирования : libebml v1.2.3 + libmatroska v1.3.0
Видео
Идентификатор : 1
Формат : AVC
Формат/Информация : Advanced Video Codec
Профиль формата : [email protected]
Параметр CABAC формата : Да
Параметр ReFrames формата : 8 кадров
Идентификатор кодека : V_MPEG4/ISO/AVC
Продолжительность : 13 м.
Битрейт : 4000 Кбит/сек
Ширина : 1280 пикселей
Высота : 720 пикселей
Соотношение сторон : 16:9
Частота кадров : 23,976 кадра/сек
Цветовое пространство : YUV
Субдискретизация насыщенности : 4:2:0
Битовая глубина : 8 бит
Тип развёртки : Прогрессивная
Бит/(Пиксели*Кадры) : 0.181
Размер потока : 372 Мбайт (68%)
Библиотека кодирования : x264 core 119 r2106 07efeb4
Настройки программы : cabac=1 / ref=8 / deblock=1:-1:-1 / analyse=0x3:0x133 / me=umh / subme=9 / psy=1 / psy_rd=0.40:0.00 / mixed_ref=0 / me_range=16 / chroma_me=1 / trellis=2 / 8x8dct=1 / cqm=0 / deadzone=21,11 / fast_pskip=0 / chroma_qp_offset=-2 / threads=3 / sliced_threads=0 / nr=0 / decimate=1 / interlaced=0 / bluray_compat=0 / constrained_intra=0 / bframes=8 / b_pyramid=2 / b_adapt=2 / b_bias=0 / direct=3 / weightb=1 / open_gop=0 / weightp=2 / keyint=240 / keyint_min=25 / scenecut=40 / intra_refresh=0 / rc_lookahead=220 / rc=2pass / mbtree=1 / bitrate=4000 / ratetol=1.0 / qcomp=0.60 / qpmin=10 / qpmax=69 / qpstep=4 / cplxblur=20.0 / qblur=0.5 / ip_ratio=1.40 / aq=1:0.60
Default : Да
Forced : Нет
Аудио #1
Идентификатор : 2
Формат : AC-3
Формат/Информация : Audio Coding 3
Расширение режима : CM (complete main)
Параметр Endianness формата : Big
Идентификатор кодека : A_AC3
Продолжительность : 13 м.
Вид битрейта : Постоянный
Битрейт : 640 Кбит/сек
Каналы : 6 каналов
Расположение каналов : Front: L C R, Side: L R, LFE
Частота : 48,0 КГц
Битовая глубина : 16 бит
Метод сжатия : С потерями
Размер потока : 61,0 Мбайт (11%)
Заголовок : DUB
Язык : Russian
Default : Да
Forced : Да
Аудио #2
Идентификатор : 3
Формат : AC-3
Формат/Инф
5c3c4ebb2ecc66f9976523748af1233846e6af82Большой отрыв БОБа / B.O.B.s Big Break (Роберт Портер, короткометражка, анимация, мультфильм, 2009) [BDRip 720p, Профессиональный (полное дублирование) + Любительский (многоголосый, закадровый) + Оригинал + Sub] Большой отрыв БОБа / B.O.B.s Big Break (Роберт Портер, короткометражка, анимация, мультфильм, 2009) [BDRip 720p, Профессиональный (полное дублирование) + Любительский (многоголосый, закадровый) + Оригинал + Sub] " />

Аплоадер: Админ, дата: 25-08-2012, 11:44, торрент скачан: 359 раз

Понравилась раздача? Посмотрите эти:
  • Лавлэйс / Lovelace (Роб Эпштейн, Джеффри Фридман, драма, биография, 2013) [ ...
  • Больше чем мёд / More Than Honey (документальный, 2012) [BDRip 720p, Профес ...
  • Вампирша / Rise (Себастьян Гутиеррес, ужасы, боевик, триллер, детектив, 200 ...
  • Даю год / I Give It a Year (Дэн Мазер, мелодрама, комедия, 2012) [BDRip-AVC ...
  • Крученый мяч / Trouble with the Curve (Роберт Лоренц, Драма, 2012) [BDRip-A ...
  • Суррогат / The Sessions (Бен Луин, Драма, 2012) [BDRip-AVC, Профессиональны ...
  • Ошибка телохранителя / The Girl from the Naked Eye (Дэвид Рен, боевик, трил ...
  • Образец 47 / Marvel One-Shot: Item 47 (Луис Д’Эспозито, короткометражка, фа ...
  • Сид, инструкция по выживанию / Surviving Sid (Гален Т. Чу / Galen T. Chu, К ...
  • Безумные мелодии: Кажется я видел котика / Looney Tunes: I Tawt I Taw а Pud ...
  • Безумные мелодии: Дорожный бегун и койот / Looney Tunes: Road Runner & Coyo ...
  • Скрат: Потерянный орех / Scrat: Gone Nutty (Карлос Салдана, короткометражка ...
  • [3D] Большой отрыв БОБа / B.O.B.s Big Break (Роберт Портер / Robert Porter, ...
  • Правдивая история Кота в сапогах / La véritable histoire du Chat Botté (Риш ...
  • История игрушек: Гавайские каникулы / Toy Story: Hawaiian Vacation (Гари ...
  • Лоракс: Серенада / The Lorax: Serenade (Кайл Балда, мультфильм, комедия, му ...
  • Миньоны / Minions (Пьер Коффин, Крис Рено, короткометражка, анимация, мульт ...
  • Ворон / The Crow (Алекс Пройас, фэнтези, боевик, триллер, 1994) [BDRip 720p ...
  • Большой отрыв БОБа / BOBs Big Break (Питер Рэмси) [2009, Мультипликация, 3D ...
  • Халк против Росомахи / Hulk Vs. Wolverine (Сэм Лью, Фрэнк Пор, боевик, прик ...
  • Информация
    Посетители, находящиеся в группе Гости, не могут оставлять комментарии к данной публикации.