вход на сайт

Имя пользователя :
Пароль :

Восстановление пароля Регистрация
Лоракс: Серенада / The Lorax: Serenade (Кайл Балда, мультфильм, комедия, музыка, короткометражка, 2012) [BDRip 720р, не требуется]
Рейтинг:
(голосов: 1)



[img]{THEME}/images/logopost.png[/img]



«Лоракс: Серенада / The Lorax: Serenade»

¤ Год выпуска: 2012
¤ Страна:США
¤ Производство: Universal Pictures
¤ Жанр: мультфильм, комедия, музыка, короткометражка

¤ Режиссёр: Кайл Балда / Kyle Balda
¤ В ролях: Крис Рено

¤ Перевод: не требуется
¤ Субтитры: нет

« Описание »
Мультфильм о том как два медвежонка, демонстрируя в соперничестве свои вокальные способности, пытаются покорить сердце красавицы...



« Тех.Данные »
¤ Качество: BDRip 720р
¤ Продолжительность: ~ 00:03:19 часа

¤ Формат: Matroska-MKV-
¤ Видео кодек: AVC [email protected]
¤ Аудио кодек: Audio Coding 3
¤ Видео: 1280x712 (16:9) 23.976 fps, AVC ~6600 kbps avg, 0.30 bit/pixel
¤ Аудио: 48 kHz, AC3 Dolby Digital, 3/2 (L,C,R) + LFE ch, ~448 kbps

MediaInfo ▼TextОбщее
Уникальный идентификатор : 182688484570617500323527966451179442424 (0x897085B4FD43BA9EA7E4A14A448BD0F8)
Полное имя : D:DownloadsЛоракс.Серенада.2012.BDRip 720p.mkv
Формат : Matroska
Версия формата : Version 2
Размер файла : 168 Мбайт
Продолжительность : 3 м. 19 с.
Общий поток : 7054 Кбит/сек
Дата кодирования : UTC 2012-08-09 11:38:11
Программа кодирования : mkvmerge v5.7.0 (The Whirlwind) built on Jul 8 2012 20:08:51
Библиотека кодирования : libebml v1.2.3 + libmatroska v1.3.0

Видео
Идентификатор : 1
Формат : AVC
Формат/Информация : Advanced Video Codec
Профиль формата : [email protected]
Параметр CABAC формата : Да
Параметр ReFrames формата : 8 кадров
Идентификатор кодека : V_MPEG4/ISO/AVC
Продолжительность : 3 м. 19 с.
Битрейт : 6600 Кбит/сек
Ширина : 1280 пикселей
Высота : 712 пикселей
Соотношение сторон : 16:9
Частота кадров : 23,976 кадра/сек
Цветовое пространство : YUV
Субдискретизация насыщенности : 4:2:0
Битовая глубина : 8 бит
Тип развёртки : Прогрессивная
Бит/(Пиксели*Кадры) : 0.302
Размер потока : 154 Мбайт (92%)
Библиотека кодирования : x264 core 125 r2208 d9d2288
Настройки программы : cabac=1 / ref=8 / deblock=1:-1:-1 / analyse=0x3:0x133 / me=umh / subme=9 / psy=1 / psy_rd=0.40:0.00 / mixed_ref=1 / me_range=16 / chroma_me=1 / trellis=2 / 8x8dct=1 / cqm=0 / deadzone=21,11 / fast_pskip=0 / chroma_qp_offset=-2 / threads=3 / lookahead_threads=1 / sliced_threads=0 / nr=0 / decimate=1 / interlaced=0 / bluray_compat=0 / constrained_intra=0 / bframes=8 / b_pyramid=2 / b_adapt=2 / b_bias=0 / direct=3 / weightb=1 / open_gop=0 / weightp=2 / keyint=240 / keyint_min=25 / scenecut=40 / intra_refresh=0 / rc_lookahead=240 / rc=2pass / mbtree=1 / bitrate=6600 / ratetol=1.0 / qcomp=0.60 / qpmin=10 / qpmax=69 / qpstep=4 / cplxblur=20.0 / qblur=0.5 / ip_ratio=1.40 / aq=1:0.60
Default : Да
Forced : Нет

Аудио
Идентификатор : 2
Формат : AC-3
Формат/Информация : Audio Coding 3
Расширение режима : CM (complete main)
Идентификатор кодека : A_AC3
Продолжительность : 3 м. 19 с.
Вид битрейта : Постоянный
Битрейт : 448 Кбит/сек
Каналы : 6 каналов
Расположение каналов : Front: L C R, Side: L R, LFE
Частота : 48,0 КГц
Битовая глубина : 16 бит
Метод сжатия : С потерями
Размер потока : 10,6 Мбайт (6%)
Default : Да
Forced : Нет





a185ec49249156269f7b21b08c0e2191c0f19b72Лоракс: Серенада / The Lorax: Serenade (Кайл Балда, мультфильм, комедия, музыка, короткометражка, 2012) [BDRip 720р, не требуется] Лоракс: Серенада / The Lorax: Serenade (Кайл Балда, мультфильм, комедия, музыка, короткометражка, 2012) [BDRip 720р, не требуется] " />

Аплоадер: Админ, дата: 10-08-2012, 18:11, торрент скачан: 359 раз

Понравилась раздача? Посмотрите эти:
  • Подглядывающий на кухне / Kick the Cock (Тинто Брасс, Эротика, короткометра ...
  • Усатый нянь (Владимир Грамматиков, комедия, семейный, 1977) [DVDRip-AVC, Не ...
  • Гадкий я 2 / Despicable Me 2 (Пьер Соффин, Крис Рено, мультфильм, фантастик ...
  • Заклятие / The Conjuring (Джеймс Ван, ужасы, триллер, 2013) [BDRip 720р, Ду ...
  • Башня / The Tower (Чи-хун Ким, драма, 2012) [BDRip-AVC, Любительский (двухг ...
  • Голливудский мусор / Garbage (Филипп Волкен, драма, комедия, 2013) [HDTVRip ...
  • Паровозик Тишка / Сезон 1, Эпизоды с 1 по 12 (из 12) (мультфильм, короткоме ...
  • Даю год / I Give It a Year (Дэн Мазер, мелодрама, комедия, 2012) [BDRip-AVC ...
  • Дикий запад. Кино и реальность / The Wild And The West (документальный, 200 ...
  • Толстяк на ринге / Here Comes the Boom (Фрэнк Корачи, Боевик, комедия, 2012 ...
  • Суррогат / The Sessions (Бен Луин, Драма, 2012) [BDRip-AVC, Профессиональны ...
  • Чемпионат Англии 2012-2013 / 25-й тур / Обзор / Суббота / BBC Sport [2013 г ...
  • Думай, как мужчина / Think Like a Man (Тим Стори, Мелодрама, комедия, 2012) ...
  • Образец 47 / Marvel One-Shot: Item 47 (Луис Д’Эспозито, короткометражка, фа ...
  • Белка: Не время для орехов / Scrat: No Time for Nuts (Крис Рено, Майк Труме ...
  • Сид, инструкция по выживанию / Surviving Sid (Гален Т. Чу / Galen T. Chu, К ...
  • Безумные мелодии: Кажется я видел котика / Looney Tunes: I Tawt I Taw а Pud ...
  • Безумные мелодии: Дорожный бегун и койот / Looney Tunes: Road Runner & Coyo ...
  • Лоракс / Dr. Seuss The Lorax (Крис Рено, Кайл Балда, Мультфильм, фэнтези, с ...
  • Лоракс / Dr. Seuss The Lorax (Крис Рено, Кайл Балда, Мультфильм, фэнтези, с ...
  • Скрат: Потерянный орех / Scrat: Gone Nutty (Карлос Салдана, короткометражка ...
  • Морской бой / Battleship (Питер Берг, Фантастика, Боевик, Триллер, 2012) [B ...
  • Большой отрыв БОБа / B.O.B.s Big Break (Роберт Портер, короткометражка, ан ...
  • Миньоны / Minions (Пьер Коффин, Крис Рено, короткометражка, анимация, мульт ...
  • Чемпионат Мира 2014 | Отборочный турнир | Европа | World Cup Qualifiers - H ...
  • Информация
    Посетители, находящиеся в группе Гости, не могут оставлять комментарии к данной публикации.