вход на сайт

Имя пользователя :
Пароль :

Восстановление пароля Регистрация
Лоракс / Dr. Seuss The Lorax (Крис Рено, Кайл Балда, Мультфильм, фэнтези, семейный, 2012) [BDRip 720p, Дубляж, Оригинал, Commentary, Descriptive, Sub]
Рейтинг:
(голосов: 1)



[img]{THEME}/images/logopost.png[/img]



Лоракс / Dr. Seuss The Lorax

Год выпуска: 2012
Страна: США
Производство: Illumination Entertainment
Жанр:Мультфильм, фэнтези, семейный

Режиссёр: Крис Рено, Кайл Балда
В ролях: Дэнни ДеВито, Эд Хелмс, Зак Эфрон, Тейлор Свифт, Бетти Уайт, Роб Риггл, Дженни Слейт, Назим Пэдрад, Джоэл Светов, Майкл Битти и др.

Перевод: Дубляж, Оригинал, Commentary,Descriptive
Субтитры:Russian, English, Romanian, Spanish, Catalan, Vietnamese

Описание: Недалекое будущее. Стоит нажать на кнопку — и мир изменится по твоему желанию: прямо под окном вырастут горы, во дворе зашумит океан. Единственная неприятность — все вокруг сделано из пластика. Но для влюбленного нет преград. Одно желание прекрасной девушки — увидеть последнее живое дерево — и он пускается в путь. На помощь ему приходит могущественный, но слегка приставучий Лоракс.

Качество: BDRip 720p [EbP]
Продолжительность: 01:26:18 час.


Формат: MKV
Видео кодек: x264
Аудио кодек: DTS, AC3
Видео: 1280x694(16:9), 23.976 fps, x264 ~4 351 kbps avg, 0.204 bit/pixel
Аудио#1: 48 kHz, DTS, 6 channels, ~755 kbps - (Russian)
Аудио#2:48 kHz, DTS, 3/2 (L,C,R,l,r) + LFE ch, ~1510.00 kbps avg (English)
Аудио#3: 48 kHz, AC3 Dolby Digital, 2/0 (L,R) ch, ~192 kbps (Eng [Commentary )
Аудио#4: 48 kHz, AC3 Dolby Digital, 2/0 (L,R) ch, ~192 kbps (Eng [ Descriptive )

Дата премьеры (мир): 1 марта 2012
Дата премьеры (РФ): 8 марта 2012, «UPI»

MediaInfo ▼Dr.Seuss.The.Lorax.2012.720p.Blu-ray.x264.DTS.Rus.Eng.Subs-EbP.mkv
Format : Matroska
File size : 4.31 GiB
Duration : 1h 26mn
Overall bit rate : 7 141 Kbps
Movie name : HDT
Encoded date : UTC 2012-08-07 20:41:51
Writing application : mkvmerge v5.2.0 (I cant explain) built on Dec 18 2011 18:12:03
Writing library : libebml v1.2.3 + libmatroska v1.3.0

Video
ID : 1
Format : AVC
Format/Info : Advanced Video Codec
Format profile : [email protected]
Format settings, CABAC : Yes
Format settings, ReFrames : 9 frames
Codec ID : V_MPEG4/ISO/AVC
Duration : 1h 26mn
Bit rate : 4 351 Kbps
Width : 1 280 pixels
Height : 694 pixels
Display aspect ratio : 16:9
Frame rate : 23.976 fps
Color space : YUV
Chroma subsampling : 4:2:0
Bit depth : 8 bits
Scan type : Progressive
Bits/(Pixel*Frame) : 0.204
Stream size : 2.62 GiB (61%)
Title : The Lorax (2012)
Writing library : x264 core 125 r2208 d9d2288
Encoding settings : cabac=1 / ref=9 / deblock=1:-3:-3 / analyse=0x3:0x113 / me=tesa /
subme=11 / psy=1 / psy_rd=1.00:0.00 / mixed_ref=1 / me_range=16 / chroma_me=1 / trellis=2 /
8x8dct=1 / cqm=0 / deadzone=21,11 / fast_pskip=0 / chroma_qp_offset=-2 / threads=12 /
lookahead_threads=2 / sliced_threads=0 / nr=0 / decimate=0 / interlaced=0 / bluray_compat=0 /
constrained_intra=0 / bframes=8 / b_pyramid=2 / b_adapt=2 / b_bias=0 / direct=3 / weightb=1 /
open_gop=0 / weightp=2 / keyint=250 / keyint_min=23 / scenecut=40 / intra_refresh=0 / rc=crf /
mbtree=0 / crf=16.5 / qcomp=0.60 / qpmin=0 / qpmax=69 / qpstep=4 / ip_ratio=1.40 / pb_ratio=1.30 /
aq=1:0.98
Language : English
Matrix coefficients : BT.709-5, BT.1361, IEC 61966-2-4 709, SMPTE RP177

Audio #1
ID : 2
Format : DTS
Format/Info : Digital Theater Systems
Codec ID : A_DTS
Duration : 1h 26mn
Bit rate mode : Constant
Bit rate : 755 Kbps
Channel(s) : 6 channels
Channel positions : Front: L C R, Side: L R, LFE
Sampling rate : 48.0 KHz
Bit depth : 24 bits
Compression mode : Lossy
Stream size : 466 MiB (11%)
Title : DTS 5.1 @ 768 kbps, BD EUR
Language : Russian

Audio #2
ID : 3
Format : DTS
Format/Info : Digital Theater Systems
Codec ID : A_DTS
Duration : 1h 26mn
Bit rate mode : Constant
Bit rate : 1 510 Kbps
Channel(s) : 6 channels
Channel positions : Front: L C R, Side: L R, LFE
Sampling rate : 48.0 KHz
Bit depth : 24 bits
Compression mode : Lossy
Stream size : 932 MiB (21%)
Language : English

Audio #3
ID : 4
Format : AC-3
Format/Info : Audio Coding 3
Format profile :
20ea02ec09eaac449513820fd5f2f8ef56285761Лоракс / Dr. Seuss The Lorax (Крис Рено, Кайл Балда, Мультфильм, фэнтези, семейный, 2012) [BDRip 720p, Дубляж, Оригинал, Commentary, Descriptive, Sub] Лоракс / Dr. Seuss The Lorax (Крис Рено, Кайл Балда, Мультфильм, фэнтези, семейный, 2012) [BDRip 720p, Дубляж, Оригинал, Commentary, Descriptive, Sub] " />

Аплоадер: Админ, дата: 8-08-2012, 04:37, торрент скачан: 359 раз

Понравилась раздача? Посмотрите эти:
  • Паркер / Parker (Тейлор Хэкфорд, Боевик, триллер, криминал, 2013) [BDRip 7 ...
  • Обливион / Oblivion (Джозеф Косински, Фантастика, боевик, триллер, приключе ...
  • Отверженные / Les Miserables (Том Хупер, Мюзикл, драма, мелодрама, 2012) [B ...
  • [3D] Лоракс / The Lorax (Крис Рено, 2012, мультфильм, фэнтези, комедия, сем ...
  • Толстяк на ринге / Here Comes the Boom (Фрэнк Корачи, Боевик, комедия, 201 ...
  • Хорошо быть тихоней / The Perks of Being a Wallflower (Стивен Чбоски, Драма ...
  • Лоракс / Dr. Seuss The Lorax (Крис Рено, Кайл Балда, Мультфильм, фэнтези, с ...
  • Лоракс / Dr. Seuss The Lorax (Крис Рено, Кайл Балда, Мультфильм, фэнтези, с ...
  • Лоракс / Dr. Seuss The Lorax (Крис Рено, Кайл Балда, Мультфильм, фэнтези, с ...
  • Лоракс / Dr. Seuss The Lorax (Крис Рено, Кайл Балда, Мультфильм, фэнтези, с ...
  • Лоракс / Dr. Seuss The Lorax (Крис Рено, Кайл Балда, Мультфильм, фэнтези, с ...
  • [3D] Лоракс / The Lorax (Крис Рено, Кайл Балда / Chris Renaud, Kyle Balda, ...
  • «Старый» Новый год / New Years Eve (Гэрри Маршалл, мелодрама, комедия, 2011 ...
  • Джок / Jock (Дункан МакНили, мультфильм, комедия, приключения, семейный, 20 ...
  • Мачо и ботан / 21 Jump Street (Фил Лорд, Крис Миллер, боевик, комедия, 2012 ...
  • «Весёлые» каникулы / Get the Gringo (Адриан Грюнберг, Боевик, комедия, 2012 ...
  • Лоракс: Серенада / The Lorax: Serenade (Кайл Балда, мультфильм, комедия, му ...
  • Ворон / The Raven (Джеймс МакТиг, Триллер, детектив, 2012) [BDRip 720p, Дуб ...
  • Лоракс / Dr. Seuss The Lorax (Крис Рено, Кайл Балда, Мультфильм, фэнтези, с ...
  • Мадагаскар 3 / Madagascar 3: Europes Most Wanted (Эрик Дарнелл, Том МакГрат ...
  • Третий лишний / Ted (Сет МакФарлейн, Фэнтези, комедия, 2012) [BDRip 720p, Д ...
  • Странная жизнь Тимоти Грина / The Odd Life of Timothy Green (Питер Хеджес, ...
  • Эволюция Борна / The Bourne Legacy (Тони Гилрой, Боевик, триллер, детектив, ...
  • Петля времени / Looper (Райан Джонсон, Фантастика, боевик, триллер, 2012) [ ...
  • Феи: Тайна Зимнего Леса / Secret Of The Wings (Роберт Ганнавей, Пегги Холмс ...
  • Информация
    Посетители, находящиеся в группе Гости, не могут оставлять комментарии к данной публикации.