вход на сайт

Имя пользователя :
Пароль :

Восстановление пароля Регистрация
Леди и бродяга 2: приключения Шалуна / Lady and the Tramp II: Scamps Adventure [Джаннин Пассел / Jeannine Roussel, мультфильм, 2001) [BDRip 720p, дубляж, Оригинал, субтитры]
Рейтинг:
(голосов: 1)



[img]{THEME}/images/logopost.png[/img]



Леди и Бродяга 2 / Lady and the Tramp II: Scamps Adventure

Год выпуска: 2001
Страна: Австралия
Производство: Buena Vista Distribution
Жанр: мультфильм

Перевод: профессиональный дубляж, английский оригинал
Cубтитры: русские, английские, украинские (отключаемые)

Режиссёр: Жанин Роуссел, Даррел Руни
Роли озвучивали: Скотт Вулф, Алисса Милано, Чазз Пальминтери, Джефф Беннетт, Джоди Бенсон, Билл Фагербакки, Микки Руни, Бронсон Пинчот, Кэти Мориарти, Мэри Кэй Бергман

Описание: В поисках риска и «реальной» собачьей жизни Бездельник уходит из дома и встречает Ангела, Бастера и его шайку. Вместе с верными друзьями он переживёт множество комичных ситуаций а также столкнётся с опасностями, которые вполне могут ожидать маленького щенка на улицах большого города. Хотя Бездельник и нашёл риск, но мысли его возвращаются к дому и родным…

IMDB: 5.5 (2354)
КиноПоиск: 6.953, (829)

Качество: BDRip 720p (источник)
Продолжительность: 01:09:02 часов

Формат: .MKV
Главы: включены
Видео кодек: x264
Аудио кодек: DTS, AC3
Свойства видео: 1280x720 (16:9), 23.976 fps, MPEG-4 AVC ~6148 VA kbps avg. VBR, DXVA, 0.280 bit/pixel
Свойства аудио:

Русский (профессиональный дубляж от ст. «Пифагор»): Dolby Digital Acoustic Coder 3 5.1 (AC-3) 6 ch, 640 kbps CBR, 48 kHz, 16 bit;
Английский (оригинал): DLs Digital Theatre Systems5.1 (DTS) 6 ch, 1536 kbps, 48 kHz @ 24 bit;
mediainfo ▼TextGeneral
Unique ID : 194529539428819289062029718202792694618 (0x925906C90E8516BEBBBF987BD8AA535A)
Complete name : Lady.And.The.Tramp.II.2001.D.BDRip.720p.mkv
Format : Matroska
Format version : Version 2
File size : 4.02 GiB
Duration : 1h 9mn
Overall bit rate : 8 336 Kbps
Movie name : -= Rip by Kim =-
Encoded date : UTC 2012-02-01 16:23:42
Writing application : mkvmerge v5.2.0 (I cant explain) built on Dec 18 2011 18:12:03
Writing library : libebml v1.2.3 + libmatroska v1.3.0

Video
ID : 1
Format : AVC
Format/Info : Advanced Video Codec
Format profile : [email protected]
Format settings, CABAC : Yes
Format settings, ReFrames : 9 frames
Codec ID : V_MPEG4/ISO/AVC
Duration : 1h 9mn
Bit rate : 6 184 Kbps
Width : 1 280 pixels
Height : 720 pixels
Display aspect ratio : 16:9
Frame rate : 23.976 fps
Color space : YUV
Chroma subsampling : 4:2:0
Bit depth : 8 bits
Scan type : Progressive
Bits/(Pixel*Frame) : 0.280
Stream size : 2.90 GiB (72%)
Title : -=IRONCLUB=-
Writing library : x264 core 116 r2074 2641b9e
Encoding settings : cabac=1 / ref=9 / deblock=1:0:0 / analyse=0x3:0x133 / me=umh / subme=11 / psy=1 / psy_rd=1.00:0.15 / mixed_ref=1 / me_range=32 / chroma_me=1 / trellis=2 / 8x8dct=1 / cqm=0 / deadzone=21,11 / fast_pskip=0 / chroma_qp_offset=-3 / threads=12 / sliced_threads=0 / nr=0 / decimate=1 / interlaced=0 / bluray_compat=0 / constrained_intra=0 / bframes=7 / b_pyramid=2 / b_adapt=2 / b_bias=0 / direct=3 / weightb=1 / open_gop=0 / weightp=2 / keyint=250 / keyint_min=23 / scenecut=40 / intra_refresh=0 / rc_lookahead=40 / rc=2pass / mbtree=1 / bitrate=6184 / ratetol=1.0 / qcomp=0.60 / qpmin=0 / qpmax=69 / qpstep=4 / cplxblur=20.0 / qblur=0.5 / vbv_maxrate=50000 / vbv_bufsize=62500 / nal_hrd=none / ip_ratio=1.40 / aq=1:1.00
Language : English
Default : Yes
Forced : No

Audio #1
ID : 2
Format : AC-3
Format/Info : Audio Coding 3
Mode extension : CM (complete main)
Codec ID : A_AC3
Duration : 1h 9mn
Bit rate mode : Constant
Bit rate : 640 Kbps
Channel(s) : 6 channels
Channel positions : Front: L C R, Side: L R, LFE
Sampling rate : 48.0 KHz
Bit depth : 16 bits
Compression mode : Lossy
Stream size : 316 MiB (8%)
Title : Дубляж
Language : Russian
Default : Yes
Forced : No

Audio #2
ID : 3
Format : DTS
Format/Info : Digital Theater Systems
Codec ID : A_DTS
Duration : 1h 9mn
Bit rate mode : Constant
Bit rate : 1 510 Kbps
Channel(s) : 6 channels
Channel positions : Front: L C R, Side: L R, LFE
Sampling rate : 48.0 KHz
Bit depth : 24 bits
Compression mode : Lossy
Stream size : 745 MiB (18%)
Title : Ор
b2fd3e625e7a5b0aeacd4e64dca8c73cf798e6aaЛеди и бродяга 2: приключения Шалуна / Lady and the Tramp II: Scamps Adventure [Джаннин Пассел / Jeannine Roussel, мультфильм, 2001) [BDRip 720p, дубляж, Оригинал, субтитры] Леди и бродяга 2: приключения Шалуна / Lady and the Tramp II: Scamps Adventure [Джаннин Пассел / Jeannine Roussel, мультфильм, 2001) [BDRip 720p, дубляж, Оригинал, субтитры] " />

Аплоадер: Админ, дата: 13-06-2012, 14:10, торрент скачан: 359 раз

Понравилась раздача? Посмотрите эти:
  • Королевский бродяга / Lu ding ji (Вонг Джинг, исторический, комедия, боевые ...
  • Железный Кулак [Театральная версия] / The Man with the Iron Fists [Theatric ...
  • Толстяк на ринге / Here Comes the Boom (Фрэнк Корачи, Боевик, комедия, 201 ...
  • Леди и бродяга 2: Приключения Шалуна / Lady and the Tramp 2: Scamps Adventu ...
  • [Дилогия] Леди и бродяга / Lady and the Tramp (Клайд Джероними, Уилфред Дже ...
  • Леди и бродяга 2: Приключения Шалуна / Lady and the Tramp 2: Scamps Adventu ...
  • Леди и бродяга 2: Приключения Шалуна / Lady and the Tramp 2: Scamps Adventu ...
  • Леди и бродяга 2: Приключения Шалуна / Lady and the Tramp II: Scamps Advent ...
  • Дети шпионов 4D / Spy Kids: All the Time in the World in 4D (Роберт Родриге ...
  • Конан-варвар / Conan the Barbarian (Маркус Ниспел, фэнтези, боевик, приключ ...
  • Чаббчаббы спасают Рождество / The Chubbchubbs Save Xmas (Коуди Камерон, мул ...
  • Закон доблести / Act of Valor (Майк МакКой, Скотт Во, боевик, триллер, прик ...
  • «Старый» Новый год / New Years Eve (Гэрри Маршалл, мелодрама, комедия, 2011 ...
  • Проект X: Дорвались / Project X (Нима Нуризаде, комедия, 2012) [BDRip 720p, ...
  • Джок / Jock (Дункан МакНили, мультфильм, комедия, приключения, семейный, 20 ...
  • «Весёлые» каникулы / Get the Gringo (Адриан Грюнберг, Боевик, комедия, 2012 ...
  • Пираты! Банда неудачников / The Pirates! Band of Misfits (Питер Лорд, Джефф ...
  • Ворон / The Raven (Джеймс МакТиг, Триллер, детектив, 2012) [BDRip 720p, Дуб ...
  • Рок на века / Rock of Ages (Адам Шенкман, Мюзикл, драма, мелодрама, комедия ...
  • Супер Майк / Magic Mike (Стивен Содерберг, Драма, комедия, 2012) [BDRip 720 ...
  • Цунами 3D / Bait (Кимбл Рендалл, Ужасы, боевик, триллер, 2011) [BDRip 720p ...
  • На Дороге / On The Road (Уолтер Саллес, Драма, приключения, 2012) [BDRip 72 ...
  • Патруль / End of Watch (Дэвид Эйр, Триллер, драма, криминал, 2012) [BDRip 7 ...
  • Явление / The Apparition (Тодд Линкольн, Ужасы, триллер, 2012) [BDRip 720p, ...
  • Эволюция Борна / The Bourne Legacy (Тони Гилрой, Боевик, триллер, детектив, ...
  • Информация
    Посетители, находящиеся в группе Гости, не могут оставлять комментарии к данной публикации.