вход на сайт

Имя пользователя :
Пароль :

Восстановление пароля Регистрация
Феи: Потерянное сокровище / Tinker Bell and the Lost Treasur (Клэй Холл, мультфильм, фэнтези, приключения, семейный, 2009) [BDRip 720p, Дубляж + Оригинал + субтитры ( Rus, Ukr, Eng)]
Рейтинг:
(голосов: 1)



[img]{THEME}/images/logopost.png[/img]



Феи: Потерянное сокровище / Tinker Bell and the Lost Treasur

Cлоган: «Adventure beyond Pixie Hollow.»


Год выпуска: 2009
Страна:США
Выпущено: DisneyToon Studios
Жанр: мультфильм, фэнтези, приключения, семейный

Режиссёр: Клэй Холл
В главных ролях:Кристин Ченоуэт, Мэй Уитман, Анджелика Хьюстон, Люси Лью, Памела Адлон, Джесси МакКартни, Рэйвен, Грэй ДеЛисл, Джейн Хоррокс, Джон Ди Маджио

Перевод: Дубляж + Оригинал
Субтитры:Russian, English, Ukrainian

О фильме:Продолжение приключений феи мастерицы Динь-Динь и ее друзей. Необходимо омолодить Дерево Фейской Пыльцы. Выбирают фею Динь — лучшего из мастеров, она должна изготовить Скипетр, важнейшая часть которого — Лунный Камень. В ходе работы над Скипетром Лунный Камень был разрушен. Динь-Динь очень хочет исправить ошибку. Она отправляется на север Нетляндии в поисках Волшебного Зеркала, которое может исполнить ее желание



IMDB: рейтинг6.5/10 (1 666 votes)
КиноПоиск: рейтинг 7.7/10(662 голосов)

MediaInfo ▼Text
General
Unique ID : 222413076968174060733175252383464698978 (0xA7533353AE81E930834D1A4163483462)
Complete name : /Torrents/home/alekseim/data/Tinker.Bell.and.the.Lost.Treasure.2009.720p.BluRay.Rus.Eng.mkv
Format : Matroska
Format version : Version 2
File size : 3.37 GiB
Duration : 1h 20mn
Overall bit rate : 6 019 Kbps
Movie name : Tinker Bell and the Lost Treasure (2009) - Release for HDCLUB
Encoded date : UTC 2009-11-26 18:52:08
Writing application : mkvmerge v2.9.7 (Tenderness) built on Jul 1 2009 18:43:35
Writing library : libebml v0.7.7 + libmatroska v0.8.1

Video
ID : 1
Format : AVC
Format/Info : Advanced Video Codec
Format profile : [email protected]
Format settings, CABAC : Yes
Format settings, ReFrames : 9 frames
Codec ID : V_MPEG4/ISO/AVC
Duration : 1h 20mn
Bit rate : 4 123 Kbps
Width : 1 280 pixels
Height : 720 pixels
Display aspect ratio : 16:9
Frame rate : 23.976 fps
Color space : YUV
Chroma subsampling : 4:2:0
Bit depth : 8 bits
Scan type : Progressive
Bits/(Pixel*Frame) : 0.187
Stream size : 2.24 GiB (67%)
Title : Release for HDCLUB
Writing library : x264 core 79 r1336M 2a35a01
Encoding settings : cabac=1 / ref=9 / deblock=1:-3:-3 / analyse=0x3:0x113 / me=umh / subme=9 / psy=1 / psy_rd=0.8:0.0 / mixed_ref=1 / me_range=32 / chroma_me=1 / trellis=2 / 8x8dct=1 / cqm=0 / deadzone=21,11 / chroma_qp_offset=-2 / threads=6 / nr=0 / decimate=0 / mbaff=0 / constrained_intra=0 / bframes=5 / b_pyramid=2 / b_adapt=2 / b_bias=0 / direct=3 / wpredb=1 / wpredp=2 / keyint=250 / keyint_min=25 / scenecut=40 / rc=2pass / mbtree=0 / bitrate=4123 / ratetol=1.0 / qcomp=0.60 / qpmin=10 / qpmax=51 / qpstep=4 / cplxblur=20.0 / qblur=0.5 / ip_ratio=1.40 / pb_ratio=1.30 / aq=1:0.70
Language : English
Default : Yes
Forced : No

Audio #1
ID : 2
Format : AC-3
Format/Info : Audio Coding 3
Mode extension : CM (complete main)
Codec ID : A_AC3
Duration : 1h 20mn
Bit rate mode : Constant
Bit rate : 384 Kbps
Channel(s) : 6 channels
Channel positions : Front: L C R, Side: L R, LFE
Sampling rate : 48.0 KHz
Bit depth : 16 bits
Compression mode : Lossy
Stream size : 220 MiB (6%)
Title : AC3 5.1 @ 384 kbps - Дублированный
Language : Russian
Default : Yes
Forced : No

Audio #2
ID : 3
Format : DTS
Format/Info : Digital Theater Systems
Codec ID : A_DTS
Duration : 1h 20mn
Bit rate mode : Constant
Bit rate : 1 510 Kbps
Channel(s) : 6 channels
Channel positions : Front: L C R, Side: L R, LFE
Sampling rate : 48.0 KHz
Bit depth : 24 bits
Compression mode : Lossy
Stream size : 867 MiB (25%)
Title : DTS 5.1 @ 1536 kbps
Language : English
Default : No
Forced : No

Text #1
ID : 4
Format : UTF-8
Codec ID : S_TEXT/UTF8
Codec ID/Info : UTF-8 Plain Text
Language : Russian
Default : No
Forced : No

Text #2
ID : 5
Format : UTF-8
Codec ID : S_TEXT/UTF8
Codec ID/Info : UTF-8 Plain Text
Language : Ukrainian
Default : No
Forced : No
5052cccbaa56d9d06948e207114b1ef1b359d5d2Феи: Потерянное сокровище / Tinker Bell and the Lost Treasur (Клэй Холл, мультфильм, фэнтези, приключения, семейный, 2009) [BDRip 720p, Дубляж + Оригинал + субтитры ( Rus, Ukr, Eng)] Феи: Потерянное сокровище / Tinker Bell and the Lost Treasur (Клэй Холл, мультфильм, фэнтези, приключения, семейный, 2009) [BDRip 720p, Дубляж + Оригинал + субтитры ( Rus, Ukr, Eng)] " />

Аплоадер: Админ, дата: 14-03-2012, 06:42, торрент скачан: 359 раз

Понравилась раздача? Посмотрите эти:
  • Суррогат / The Sessions (Бен Луин, драма, 2012) [BDRip 720p, Профессиональн ...
  • Зубная фея 2 / Tooth Fairy 2 (Алекс Замм, комедия, семейный, 2012) [BDRip 7 ...
  • Феи: Волшебное спасение / Tinker Bell and the Great Fairy Rescue (Брэдли Рэ ...
  • Феи: Волшебное спасение / Tinker Bell and the Great Fairy Rescue (Брэдли Рэ ...
  • Феи: Потерянное сокровище / Tinker Bell and the Lost Treasure (Клей Холл, м ...
  • Бобер / The Beaver (Джоди Фостер, драма, 2011) [BDRip 720p, Дубляж + Оригин ...
  • Дети шпионов 4D / Spy Kids: All the Time in the World in 4D (Роберт Родриге ...
  • Конан-варвар / Conan the Barbarian (Маркус Ниспел, фэнтези, боевик, приключ ...
  • Один дома 2: Затерянный в Нью-Йорке / Home Alone 2: Lost in New York (Крис ...
  • Чаббчаббы спасают Рождество / The Chubbchubbs Save Xmas (Коуди Камерон, мул ...
  • Шпион, выйди вон! / Tinker Tailor Soldier Spy (Томас Альфредсон, триллер, д ...
  • Скуби-Ду 3: Тайна начинается / Scooby-Doo! The Mystery Begins (Брайан Леван ...
  • Джок / Jock (Дункан МакНили, мультфильм, комедия, приключения, семейный, 20 ...
  • Пираты! Банда неудачников / The Pirates! Band of Misfits (Питер Лорд, Джефф ...
  • Ворон / The Raven (Джеймс МакТиг, Триллер, детектив, 2012) [BDRip 720p, Дуб ...
  • Феи: Тайна Зимнего Леса / Secret Of The Wings (Роберт Ганнавей, Пегги Холмс ...
  • Феи: Тайна Зимнего Леса / Secret Of The Wings (Роберт Ганнавей, Пегги Холмс ...
  • Феи / Tinker Bell (Брэдли Рэймонд) [2008 г, мультфильм, фэнтези, DVDRip]
  • Феи / Tinker Bell (Брэдли Рэймонд, Фэнтези, приключения, семейный, мультфил ...
  • Феи: Потерянное сокровище / Tinker Bell and the Lost Treasure (Клай Халл, Ф ...
  • Феи: Потерянное сокровище / Tinker Bell and the Lost Treasure (Клэй Холл, Ф ...
  • [Дилогия] Феи (Динь-Динь) / Tinker Bell (Брэдли Рэймонд, Клей Холл, Мультфи ...
  • Феи: Волшебное спасение / Tinker Bell and the Great Fairy Rescue (Брэдли Рэ ...
  • Феи: Потерянное сокровище / Tinker Bell And The Lost Treasure (Клэй Холл, м ...
  • Турнир Долины Фей / Tinker Bell and the Pixie Hollow Games (Марк Рисли, мул ...
  • Информация
    Посетители, находящиеся в группе Гости, не могут оставлять комментарии к данной публикации.