вход на сайт

Имя пользователя :
Пароль :

Восстановление пароля Регистрация
История игрушек: Гавайские каникулы / Toy Story: Hawaiian Vacation (Гари Ридстром, мультфильм, 2011) [BDRip 720p, Дублированный, Оригинал]
Рейтинг:
(голосов: 1)



[img]{THEME}/images/logopost.png[/img]



История игрушек: Гавайские каникулы/Toy Story: Hawaiian Vacation


Год выпуска: 2011
Страна: США
Производство: Pixar Animation Studios
Жанр: мультфильм, короткометражка, комедия, семейный

Режиссёр: Гари Ридстром / Gary Rydstrom
В ролях: Том Хэнкс / Tom Hanks, Майкл Китон / Michael Keaton, Тим Аллен / Tim Allen, Джоди Бенсон / Jodi Benson, Блейк Кларк / Blake Clark, Джоан Кьюсак / Joan Cusack, Тимоти Далтон / Timothy Dalton, Джефф Гарлин / Jeff Garlin, Эмили Хан / Emily Hahn

Перевод: Профессиональный (полное дублирование), Оригинал
Субтитры: Нет

Описание: Кен и Барби планируют романтический побег в тропический рай, но удастся ли им осуществить задуманное?..



"MediaInfo" ▼Общее
Полное имя : История игрушек Гавайские каникулы.mkv
Формат : Matroska
Размер файла : 218 Мбайт
Продолжительность : 5 м. 53 с.
Общий поток : 5175 Кбит/сек
Дата кодирования : UTC 2011-11-10 06:26:33
Программа кодирования : mkvmerge v4.6.0 (Still Crazy After All These Years) сборка от Mar 13 2011 18:33:29
Библиотека кодирования : libebml v1.2.0 + libmatroska v1.1.0

Видео
Идентификатор : 1
Формат : AVC
Формат/Информация : Advanced Video Codec
Профиль формата : [email protected]
Параметр CABAC формата : Да
Параметр ReFrames формата : 9 кадры
Параметры GOP формата : M=1, N=25
Идентификатор кодека : V_MPEG4/ISO/AVC
Продолжительность : 5 м. 53 с.
Битрейт : 4048 Кбит/сек
Ширина : 1280 пикс.
Высота : 720 пикс.
Соотношение сторон : 16:9
Частота кадров : 23,976 кадр/сек
Цветовое пространство : YUV
Подвыборка цветности : 4:2:0
Битовая глубина : 8 бит
Тип развёртки : Прогрессивная
Бит/(Пиксели*Кадры) : 0.183
Размер потока : 171 Мбайт (78%)
Библиотека кодирования : x264 core 119 r2106 07efeb4
Настройки программы : cabac=1 / ref=9 / deblock=1:-3:-3 / analyse=0x3:0x113 / me=tesa / subme=11 / psy=1 / psy_rd=0.80:0.00 / mixed_ref=1 / me_range=16 / chroma_me=1 / trellis=2 / 8x8dct=1 / cqm=0 / deadzone=21,11 / fast_pskip=0 / chroma_qp_offset=-2 / threads=12 / sliced_threads=0 / nr=0 / decimate=0 / interlaced=0 / bluray_compat=0 / constrained_intra=0 / bframes=6 / b_pyramid=2 / b_adapt=2 / b_bias=0 / direct=3 / weightb=1 / open_gop=0 / weightp=2 / keyint=250 / keyint_min=23 / scenecut=40 / intra_refresh=0 / rc=crf / mbtree=0 / crf=16.0 / qcomp=0.60 / qpmin=0 / qpmax=69 / qpstep=4 / ip_ratio=1.40 / pb_ratio=1.30 / aq=1:1.00
Язык : English
Коэффициенты матрицы : BT.709-5, BT.1361, IEC 61966-2-4 709, SMPTE RP177

Аудио #1
Идентификатор : 2
Формат : AC-3
Формат/Информация : Audio Coding 3
Расширение режима : CM (complete main)
Идентификатор кодека : A_AC3
Продолжительность : 5 м. 53 с.
Вид битрейта : Постоянный
Битрейт : 384 Кбит/сек
Канал(ы) : 6 канала(ов)
Расположение каналов : Front: L C R, Side: L R, LFE
Частота : 48,0 КГц
Битовая глубина : 16 бит
Метод сжатия : С потерями
Размер потока : 16,2 Мбайт (7%)
Язык : Russian

Аудио #2
Идентификатор : 3
Формат : AC-3
Формат/Информация : Audio Coding 3
Расширение режима : CM (complete main)
Идентификатор кодека : A_AC3
Продолжительность : 5 м. 53 с.
Вид битрейта : Постоянный
Битрейт : 640 Кбит/сек
Канал(ы) : 6 канала(ов)
Расположение каналов : Front: L C R, Side: L R, LFE
Частота : 48,0 КГц
Битовая глубина : 16 бит
Метод сжатия : С потерями
Размер потока : 27,0 Мбайт (12%)
Язык : English


Качество: BDRip 720p
Продолжительность: 00:05:53

Формат: MKV
Видео кодек: H.264
Аудио кодек: AC3
Видео: 1280 x 720 (1.778) at 23.976 fps, AVC at 4048 kbps avg, 0.183 bit/pixel
Аудио#1: Русский:48.0 kHz, AC-3, 6 ch (Front: L C R, Side: L R, LFE), 384 kbps avg [Профессиональный (полное дублирование)]
Аудио#2: Английский:48.0 kHz, AC-3, 6 ch (Front: L C R, Side: L R, LFE), 640 kbps avg [Оригинал]



92ed96a0d383713bdd95b8e51fad973f945ddefcИстория игрушек: Гавайские каникулы / Toy Story: Hawaiian Vacation (Гари Ридстром, мультфильм, 2011) [BDRip 720p, Дублированный, Оригинал] История игрушек: Гавайские каникулы / Toy Story: Hawaiian Vacation (Гари Ридстром, мультфильм, 2011) [BDRip 720p, Дублированный, Оригинал] " />

Аплоадер: Админ, дата: 30-12-2011, 19:42, торрент скачан: 359 раз

Понравилась раздача? Посмотрите эти:
  • Иллюзия обмана / Now You See Me [Extended Cut] (Луи Летерье, триллер, крими ...
  • Гадкий я 2 / Despicable Me 2 (Пьер Соффин, Крис Рено, мультфильм, фантастик ...
  • Заклятие / The Conjuring (Джеймс Ван, ужасы, триллер, 2013) [BDRip 720р, Ду ...
  • История игрушек: Мальки (Самозванец) / Toy Story Toons: Small Fry (мультфил ...
  • История игрушек: Гавайские каникулы / Toy Story Toons: Hawaiian Vacation (м ...
  • Толстяк на ринге / Here Comes the Boom (Фрэнк Корачи, Боевик, комедия, 2012 ...
  • Страшно красив / Beastly (Даниел Барнз, фэнтези, драма, мелодрама, 2011) [H ...
  • Дьявол / Devil (Джон Эрик Даудл / John Erick Dowdle,ужасы, триллер, детекти ...
  • Переростки / The Inbetweeners (Бен Палмер, Комедия, 2011) [BDRip-AVC, Профе ...
  • Проект X: Дорвались / Project X (Нима Нуризаде, комедия, 2012) [BDRip - AVC ...
  • Котенок с улицы Лизюкова (Вячеслав Котеночкин, Мультфильм, 1988) [DVDRip-AV ...
  • Сид, инструкция по выживанию / Surviving Sid (Гален Т. Чу / Galen T. Chu, К ...
  • Безумные мелодии: Кажется я видел котика / Looney Tunes: I Tawt I Taw а Pud ...
  • Скрат: Потерянный орех / Scrat: Gone Nutty (Карлос Салдана, короткометражка ...
  • Кот в сапогах / Puss in Boots (Крис Миллер, мультфильм, фэнтези, комедия, п ...
  • Бедная богатая девочка / Young Adult (Джейсон Райтман, драма, комедия, 2011 ...
  • Лоракс: Серенада / The Lorax: Serenade (Кайл Балда, мультфильм, комедия, му ...
  • Павшая империя / Hirokin (Алехо Мо-Сан, фантастика, боевик, драма, приключе ...
  • Большой отрыв БОБа / B.O.B.s Big Break (Роберт Портер, короткометражка, ан ...
  • История игрушек: Гавайские каникулы / Toy Story Toons: Hawaiian Vacation (Г ...
  • Информация
    Посетители, находящиеся в группе Гости, не могут оставлять комментарии к данной публикации.