вход на сайт

Имя пользователя :
Пароль :

Восстановление пароля Регистрация
Чаббчаббы спасают Рождество / The Chubbchubbs Save Xmas (Коуди Камерон, мультфильм, короткометражка, 2007) [BDRip 720p, Дубляж + оригинал + субтитры]
Рейтинг:
(голосов: 1)



[img]{THEME}/images/logopost.png[/img]



Чаббчаббы спасают Рождество / Толстяки спасают Рождество/ The Chubbchubbs Save Xmas

Год выпуска: 2007
Страна: США
Производство: Prana Studios

Жанр: мультфильм, короткометражка

Режиссёр: Кевин Детерс
В ролях: Коуди Камерон, Мэнди Фройнд, Захари Гордан, Брэдфорд Симонсен, Джефри Тэмбор, Джефф Уолвертон

Перевод: профессиональный (полное дублирование) + оригинал
Субтитры:английские

Описание
Эта короткометражка является продолжением мультфильма «The Chubbchubbs!» отмеченного премией «Оскар»."MediaInfo" ▼TextVideo
ID : 1
Format : AVC
Format/Info : Advanced Video Codec
Format profile : [email protected]
Format settings, CABAC : Yes
Format settings, ReFrames : 8 frames
Codec ID : V_MPEG4/ISO/AVC
Duration : 5mn 44s
Bit rate : 3 877 Kbps
Width : 1 280 pixels
Height : 694 pixels
Display aspect ratio : 16:9
Frame rate : 23.976 fps
Color space : YUV
Chroma subsampling : 4:2:0
Bit depth : 8 bits
Scan type : Progressive
Bits/(Pixel*Frame) : 0.182
Stream size : 159 MiB (80%)
Title : Release for HDCLUB
Writing library : x264 core 114 r1913 5fd3dce
Encoding settings : cabac=1 / ref=8 / deblock=1:-3:-3 / analyse=0x3:0x113 / me=umh / subme=9 / psy=1 / psy_rd=1.00:0.00 / mixed_ref=1 / me_range=32 / chroma_me=1 / trellis=1 / 8x8dct=1 / cqm=0 / deadzone=21,11 / fast_pskip=0 / chroma_qp_offset=-2 / threads=6 / sliced_threads=0 / nr=0 / decimate=1 / interlaced=0 / constrained_intra=0 / bframes=8 / b_pyramid=2 / b_adapt=2 / b_bias=0 / direct=1 / weightb=1 / open_gop=0 / weightp=2 / keyint=250 / keyint_min=23 / scenecut=40 / intra_refresh=0 / rc=crf / mbtree=0 / crf=17.5 / qcomp=0.60 / qpmin=0 / qpmax=69 / qpstep=4 / ip_ratio=1.40 / pb_ratio=1.30 / aq=1:1.00
Language : English

Audio #1
ID : 2
Format : AC-3
Format/Info : Audio Coding 3
Mode extension : CM (complete main)
Codec ID : A_AC3
Duration : 5mn 44s
Bit rate mode : Constant
Bit rate : 448 Kbps
Channel(s) : 6 channels
Channel positions : Front: L C R, Side: L R, LFE
Sampling rate : 48.0 KHz
Bit depth : 16 bits
Compression mode : Lossy
Stream size : 18.4 MiB (9%)
Title : Дубляж
Language : Russian

Audio #2
ID : 3
Format : AC-3
Format/Info : Audio Coding 3
Mode extension : CM (complete main)
Codec ID : A_AC3
Duration : 5mn 44s
Bit rate mode : Constant
Bit rate : 448 Kbps
Channel(s) : 6 channels
Channel positions : Front: L C R, Side: L R, LFE
Sampling rate : 48.0 KHz
Bit depth : 16 bits
Compression mode : Lossy
Stream size : 18.4 MiB (9%)
Title : Оригинал
Language : English

Text
ID : 4
Format : UTF-8
Codec ID : S_TEXT/UTF8
Codec ID/Info : UTF-8 Plain Text
Language : EnglishТех. данные
Качество: BDRip 720p
Продолжительность: 00:05:44

Формат: MKV
Видео кодек: x264
Аудио кодек: AС3
Видео: 1280x694 (16:9) at 23.976 fps, [email protected], crf, ~3880 kbps avg, 0.182 bit/pix
Аудио #1: 48 kHz, AC3, 3/2 (L,C,R,l,r) + LFE ch, ~448 kbps avg
Аудио #2: 48 kHz, AC3, 3/2 (L,C,R,l,r) + LFE ch, ~448 kbps avg



|Cтол заказов| Наши раздачи| Набор в группу| Сказать спасибо|


76c98fe0fdd97f3ed8d4b4ea4a14596e0bbbd9faЧаббчаббы спасают Рождество / The Chubbchubbs Save Xmas (Коуди Камерон, мультфильм, короткометражка, 2007) [BDRip 720p, Дубляж + оригинал + субтитры] Чаббчаббы спасают Рождество / The Chubbchubbs Save Xmas (Коуди Камерон, мультфильм, короткометражка, 2007) [BDRip 720p, Дубляж + оригинал + субтитры] " />

Аплоадер: Админ, дата: 28-12-2011, 15:35, торрент скачан: 359 раз

Понравилась раздача? Посмотрите эти:
  • Толстяк на ринге / Here Comes the Boom (Фрэнк Корачи, Боевик, комедия, 201 ...
  • Убить по расписанию / Ticking Clock (Эрни Барбараш, фантастика, боевик, три ...
  • Персонаж / Stranger Than Fiction (Марк Форстер, Комедия, драма, фантастика, ...
  • [ENG] Крутые кексы / High School (Джон Сталберг, комедия, 2010) [BDRip 720p ...
  • Толстяки / The Chubbchubbs (Эрик Армстронг, Коуди Камерон, Мультфильм, 2002 ...
  • Геркулес / Hercules (Рон Клементс, Джон Маскер, Мультфильм, 1997 г.)[HDTVRi ...
  • Бобер / The Beaver (Джоди Фостер, драма, 2011) [BDRip 720p, Дубляж + Оригин ...
  • Дети шпионов 4D / Spy Kids: All the Time in the World in 4D (Роберт Родриге ...
  • Мальчишник 2: Из Вегаса в Бангкок / The Hangover Part II (Тодд Филлипс, ком ...
  • Ледниковый период: Гигантское Рождество / Ice Age: A Mammoth Christmas (Кар ...
  • Похищенная / A Lonely Place to Die (Джулиан Джилби, триллер, криминал, прик ...
  • Убойное Рождество Гарольда и Кумара / A Very Harold & Kumar 3D Christmas (Т ...
  • Проект X: Дорвались / Project X (Нима Нуризаде, комедия, 2012) [BDRip 720p, ...
  • Мачо и ботан / 21 Jump Street (Фил Лорд, Крис Миллер, боевик, комедия, 2012 ...
  • «Весёлые» каникулы / Get the Gringo (Адриан Грюнберг, Боевик, комедия, 2012 ...
  • Пираты! Банда неудачников / The Pirates! Band of Misfits (Питер Лорд, Джефф ...
  • Ворон / The Raven (Джеймс МакТиг, Триллер, детектив, 2012) [BDRip 720p, Дуб ...
  • Пираньи 3DD / Piranha 3DD (Джон Гулажер, ужасы, триллер, комедия, 2012) [BD ...
  • Люди в черном 3 / Men in Black III (Барри Зонненфельд, Фантастика, боевик, ...
  • Супер Майк / Magic Mike (Стивен Содерберг, Драма, комедия, 2012) [BDRip 720 ...
  • Супер Майк / Magic Mike (Стивен Содерберг, Драма, комедия, 2012) [BDRip 108 ...
  • Патруль / End of Watch (Дэвид Эйр, Триллер, драма, криминал, 2012) [BDRip 7 ...
  • Mylene Farmer / Du Temps [2011, Pop, HDTVRip]
  • Толстяки спасают Рождество / The Chubbchubbs Save Xmas (Коуди Камерон, муль ...
  • Сверхновый Супермен / All-Star Superman (Сэм Лью, мультфильм, фантастика, б ...
  • Информация
    Посетители, находящиеся в группе Гости, не могут оставлять комментарии к данной публикации.