вход на сайт

Имя пользователя :
Пароль :

Восстановление пароля Регистрация
Ледниковый период: Гигантское Рождество / Ice Age: A Mammoth Christmas (Карен Дишер, мультфильм, короткометражка, комедия, 2011) [BDRip 1080p, Дублированный + Оригинал]
Рейтинг:
(голосов: 1)



[img]{THEME}/images/logopost.png[/img]



Ледниковый период: Гигантское Рождество
Ice Age: A Mammoth Christmas

Год выпуска: 2011
Страна: США
Производство: Reel FX Creative Studios
Жанр: мультфильм, короткометражка, комедия, приключения, семейный

Режиссёр: Карен Дишер
В ролях: Джон Легуизамо, Шонн Уильям Скотт, ТиДжей Миллер, Кьяра Браво, Куин Латифа, Дэнис Лири, Рэй Романо, Джошуа Раш, Крис Уэдж

Перевод: Дублированный
Субтитры: английские, испанские

Описание: Когда Сид случайно разрушает рождественский камень, Мэнни говорит ему, что Сид попал в черный список Санты, и что ленивцу придется лететь на северный полюс просить извинения у Санты. На северном полюсе Сид хотел все сделать как лучше, но только усугубил ситуацию. Теперь дело за Мэнни и компанией, только они объединившись сохранят Рождество для всего мира!

IMDB: 7.30 (281)
КиноПоиск: 6.762 (483)

Рип от HDxT!

MeDiAiNfO ▼General
Unique ID : 253161684763950615824626231194895054353 (0xBE752ABCF67129F0931A2BE8B93CF611)
Complete name : /mnt/data/torrents/inglide/Ice.Age.A.Mammoth.Christmas.2011.1080p.BluRay.Rus.Eng-HDxT.mkv
Format : Matroska
Format version : Version 2
File size : 2.62 GiB
Duration : 25mn 33s
Overall bit rate : 14.7 Mbps
Movie name : Ice Age: A Mammoth Christmas (2011)
Encoded date : UTC 2011-12-24 06:32:40
Writing application : mkvmerge v5.2.0 (I cant explain) built on Dec 18 2011 18:12:03
Writing library : libebml v1.2.3 + libmatroska v1.3.0
Attachment : Yes

Video
ID : 1
Format : AVC
Format/Info : Advanced Video Codec
Format profile : [email protected]
Format settings, CABAC : Yes
Format settings, ReFrames : 4 frames
Codec ID : V_MPEG4/ISO/AVC
Duration : 25mn 33s
Bit rate : 12.5 Mbps
Width : 1 920 pixels
Height : 1 080 pixels
Display aspect ratio : 16:9
Frame rate : 23.976 fps
Color space : YUV
Chroma subsampling : 4:2:0
Bit depth : 8 bits
Scan type : Progressive
Bits/(Pixel*Frame) : 0.251
Stream size : 2.23 GiB (85%)
Writing library : x264 core 120 r2120 0c7dab9
Encoding settings : cabac=1 / ref=4 / deblock=1:-1:-1 / analyse=0x3:0x133 / me=tesa / subme=10 / psy=1 / psy_rd=0.70:0.05 / mixed_ref=1 / me_range=32 / chroma_me=1 / trellis=2 / 8x8dct=1 / cqm=0 / deadzone=21,11 / fast_pskip=0 / chroma_qp_offset=-3 / threads=6 / sliced_threads=0 / nr=0 / decimate=1 / interlaced=0 / bluray_compat=0 / constrained_intra=0 / bframes=6 / b_pyramid=2 / b_adapt=2 / b_bias=0 / direct=3 / weightb=1 / open_gop=0 / weightp=2 / keyint=250 / keyint_min=23 / scenecut=40 / intra_refresh=0 / rc_lookahead=80 / rc=crf / mbtree=1 / crf=15.0 / qcomp=0.60 / qpmin=0 / qpmax=69 / qpstep=4 / ip_ratio=1.40 / aq=1:1.10
Language : English

Audio #1
ID : 2
Format : AC-3
Format/Info : Audio Coding 3
Mode extension : CM (complete main)
Codec ID : A_AC3
Duration : 25mn 33s
Bit rate mode : Constant
Bit rate : 384 Kbps
Channel(s) : 6 channels
Channel positions : Front: L C R, Side: L R, LFE
Sampling rate : 48.0 KHz
Bit depth : 16 bits
Compression mode : Lossy
Stream size : 70.2 MiB (3%)
Title : Dub / AC3 5.1 @ 384 kbps
Language : Russian

Audio #2
ID : 3
Format : DTS
Format/Info : Digital Theater Systems
Codec ID : A_DTS
Duration : 25mn 33s
Bit rate mode : Constant
Bit rate : 1 510 Kbps
Channel(s) : 6 channels
Channel positions : Front: L C R, Side: L R, LFE
Sampling rate : 48.0 KHz
Bit depth : 24 bits
Compression mode : Lossy
Stream size : 276 MiB (10%)
Title : Original / DTS 5.1 @ 1509 kbps
Language : English

Text #1
ID : 4
Format : ASS
Codec ID : S_TEXT/ASS
Codec ID/Info : Advanced Sub Station Alpha
Compression mode : Lossless
Title : SDH
Language : English

Text #2
ID : 5
Format : ASS
Codec ID : S_TEXT/ASS
Codec ID/Info : Advanced Sub Station Alpha
Compression mode : Lossless
Language : Spanish

Menu
00:00:00.000 : en:00:00:00.000
00:01:10.195 : en:00:01:10.195
00:06:00.026 : en:00:06:00.026
00:06:52.454 : en:00:06:52.454
00:10:55.738 : en:00:10:55.738
00:13:41.946 :
86eb8e0cb5dd61ad2f63bc636ca6df5f3b3ffc64Ледниковый период: Гигантское Рождество / Ice Age: A Mammoth Christmas (Карен Дишер, мультфильм, короткометражка, комедия, 2011) [BDRip 1080p, Дублированный + Оригинал] Ледниковый период: Гигантское Рождество / Ice Age: A Mammoth Christmas (Карен Дишер, мультфильм, короткометражка, комедия, 2011) [BDRip 1080p, Дублированный + Оригинал] " />

Аплоадер: Админ, дата: 24-12-2011, 16:20, торрент скачан: 359 раз

Понравилась раздача? Посмотрите эти:
  • Пастырь / Priest (Скотт Чарльз Стюарт, ужасы, фантастика, боевик, триллер, ...
  • Джекпот / Arme Riddere (Магнус Мартенс, Боевик, комедия, криминал, 2011) [B ...
  • Персонаж / Stranger Than Fiction (Марк Форстер, Комедия, драма, фантастика, ...
  • Убойное Рождество Гарольда и Кумара / A Very Harold & Kumar 3D Christmas (Т ...
  • Бедная богатая девочка / Young Adult (Джейсон Райтман, драма, комедия, 2011 ...
  • Ледниковый период: Рождество мамонта / Ice Age: A Mammoth Christmas (Карен ...
  • Ледниковый период: Гигантское Рождество / Ice Age: A Mammoth Christmas (Кар ...
  • Ледниковый период: Гигантское Рождество / Ice Age: A Mammoth Christmas (Кар ...
  • Ледниковый период 4: Континентальный дрейф / Ice Age: Continental Drift (Ст ...
  • [3D] Ледниковый период: Гигантское Рождество / Ice Age: A Mammoth Christmas ...
  • Ледниковый период: Рождество мамонта / Ice Age: A Mammoth Christmas (Карен ...
  • Чаббчаббы спасают Рождество / The Chubbchubbs Save Xmas (Коуди Камерон, мул ...
  • Ледниковый период: Гигантское Рождество / Ice Age: A Mammoth Christmas (Кар ...
  • Профессионал / Killer Elite (Гэри МакКендри, Боевик, Триллер, Криминал, 201 ...
  • Убойное Рождество Гарольда и Кумара / A Very Harold & Kumar 3D Christmas (Т ...
  • Mylene Farmer / Du Temps [2011, Pop, HDTVRip]
  • Mylene Farmer / Bleu Noir [2011, Pop, HDTVRip]
  • PBS: Природа – Гималаи / PBS: Nature – The Himalayas (Крис Морган, Докумен ...
  • Ледниковый период: Рождество мамонта / Ice Age: A Mammoth Christmas (Карен ...
  • Ледниковый период: Рождество мамонта / Ice Age: A Mammoth Christmas (Карен ...
  • Ледниковый период: Рождество мамонта / Ice Age: A Mammoth Christmas (Карен ...
  • Ледниковый период: Гигантское Рождество / Ice Age: A Mammoth Christmas (Кар ...
  • Ледниковый период: Гигантское Рождество / Ice Age: A Mammoth Christmas (Кар ...
  • Ледниковый период: Гигантское Рождество / Ice Age: A Mammoth Christmas (Кар ...
  • [3D] Ледниковый период: Гигантское Рождество / Ice Age: A Mammoth Christmas ...
  • Информация
    Посетители, находящиеся в группе Гости, не могут оставлять комментарии к данной публикации.