вход на сайт

Имя пользователя :
Пароль :

Восстановление пароля Регистрация
Маугли (Роман Давыдов, мультфильм, приключения, семейный, 1973) [BDRip 720p, не требуется]
Рейтинг:
(голосов: 1)



[img]{THEME}/images/logopost.png[/img]



«Маугли»

Год выпуска: 1973
Страна: СССР
Производство: Союзмультфильм
Жанр: мультфильм, приключения, семейный

Режиссёр: Роман Давыдов
В ролях: Степан Бубнов, Людмила Касаткина, Юрий Хржановский, Лев Любецкий, Сергей Мартинсон, Александр Назаров, Люсьена Овчинникова, Анатолий Папанов, Юрий Пузырев, Владимир Ушаков

Перевод: не требуется
Субтитры:нет

Описание
Одноимённая экранизация повести Киплинга о мальчике, воспитанном волчьей стаей, ставшим своим в джунглях, победившим своего врага - тигра Шерхана, совершившем ещё многие подвиги, и, в конце концов, ушедшем к людям.

» IMDB-рейтинг:7.80 (317)

» КиноПоиск-рейтинг:7.722 (5.657)


Доп. информация
Премьеры ▼премьера (мир) 28 апреля 1998
релиз на DVD 19 января 2010, «Lizard Cinema Trade»
Mediainfo ▼TextОбщее
Уникальный идентификатор : 174096508168383154827792964868214998696 (0x82F9C49078F25D3AAC6B09B1749DC6A8)
Полное имя : D:DownloadsМаугли.1973_BDRip.720p.mkv
Формат : Matroska
Размер файла : 4,37 Гбайт
Продолжительность : 1 ч. 35 м.
Общий поток : 6543 Кбит/сек
Дата кодирования : UTC 2011-12-08 04:19:50
Программа кодирования : mkvmerge v5.1.0 (And so it goes) built on Nov 28 2011 23:58:28
Библиотека кодирования : libebml v1.2.3 + libmatroska v1.3.0

Видео
Идентификатор : 1
Формат : AVC
Формат/Информация : Advanced Video Codec
Профиль формата : [email protected]
Параметр CABAC формата : Да
Параметр ReFrames формата : 9 кадры
Параметры GOP формата : M=1, N=25
Идентификатор кодека : V_MPEG4/ISO/AVC
Продолжительность : 1 ч. 35 м.
Битрейт : 6094 Кбит/сек
Ширина : 960 пикс.
Высота : 720 пикс.
Соотношение сторон : 4:3
Частота кадров : 25,000 кадр/сек
Цветовое пространство : YUV
Подвыборка цветности : 4:2:0
Битовая глубина : 8 бит
Тип развёртки : Прогрессивная
Бит/(Пиксели*Кадры) : 0.353
Размер потока : 3,99 Гбайт (91%)
Библиотека кодирования : x264 core 120 r2119 0637cd6
Настройки программы : cabac=1 / ref=9 / deblock=1:-1:-1 / analyse=0x3:0x113 / me=umh / subme=11 / psy=1 / psy_rd=0.80:0.05 / mixed_ref=1 / me_range=32 / chroma_me=1 / trellis=2 / 8x8dct=1 / cqm=0 / deadzone=21,11 / fast_pskip=0 / chroma_qp_offset=-3 / threads=6 / sliced_threads=0 / nr=0 / decimate=1 / interlaced=0 / bluray_compat=0 / constrained_intra=0 / bframes=7 / b_pyramid=2 / b_adapt=2 / b_bias=0 / direct=3 / weightb=1 / open_gop=0 / weightp=2 / keyint=250 / keyint_min=23 / scenecut=40 / intra_refresh=0 / rc_lookahead=60 / rc=2pass / mbtree=1 / bitrate=6094 / ratetol=1.0 / qcomp=0.70 / qpmin=0 / qpmax=69 / qpstep=4 / cplxblur=20.0 / qblur=0.5 / vbv_maxrate=50000 / vbv_bufsize=62500 / nal_hrd=none / ip_ratio=1.40 / aq=2:0.70
Язык : English

Аудио
Идентификатор : 2
Формат : AC-3
Формат/Информация : Audio Coding 3
Расширение режима : CM (complete main)
Идентификатор кодека : A_AC3
Продолжительность : 1 ч. 35 м.
Вид битрейта : Постоянный
Битрейт : 448 Кбит/сек
Канал(ы) : 6 канала(ов)
Расположение каналов : Front: L C R, Side: L R, LFE
Частота : 48,0 КГц
Битовая глубина : 16 бит
Метод сжатия : С потерями
Размер потока : 307 Мбайт (7%)
Язык : Russian

Меню
00:00:00.000 : en:Chapter 01
00:19:00.640 : en:Chapter 02
00:38:18.760 : en:Chapter 03
00:57:21.680 : en:Chapter 04
01:16:28.720 : en:Chapter 05
01:35:40.160 : en:Chapter 06


Тех. данные
Качество: BDRip 720p
Продолжительность: 01:35:40 час.

Формат: MKV
Видео кодек: AVC
Аудио кодек: AC-3
Видео: 960x720 (4:3), 25,00 fps, AVC, ~ 6094 kbps avg, 0.353 bit/pixel
Аудио: 48.00 kHz, Audio Coding 3, 6 ch, ~ 448.00 kbps avg


|Cтол заказов| Наши раздачи| Набор в группу| Сказать спасибо|



5729734395161ff661414740ddabe00f278eb320Маугли (Роман Давыдов, мультфильм, приключения, семейный, 1973) [BDRip 720p, не требуется] Маугли (Роман Давыдов, мультфильм, приключения, семейный, 1973) [BDRip 720p, не требуется] " />

Аплоадер: Админ, дата: 9-12-2011, 15:57, торрент скачан: 359 раз

Понравилась раздача? Посмотрите эти:
  • Мэрайа Мунди и шкатулка Мидаса / The Adventurer: The Curse of the Midas Box ...
  • Гадкий я 2 / Despicable Me 2 (Пьер Соффин, Крис Рено, мультфильм, фантастик ...
  • Астрал на улице Арлетт / 388 Arletta Avenue (Рэндолл Коул, Триллер, 2011) [ ...
  • Королевство кривых зеркал (Александр Роу, фэнтези, семейный, 1963) [BDRip-A ...
  • Джек Ричер / Jack Reacher (Кристофер МакКуорри, Боевик,триллер, криминал, д ...
  • Убей ради меня / Kill for Me (Майкл Гринспен, триллер, драма, 2013) [DVDRip ...
  • Челюсти 3D / Shark Night 3D ( Дэвид Р. Эллис, ужасы, 2011) [BDRip-AVC, Проф ...
  • Девчата (Юрий Чулюкин, мелодрама, комедия, 1961) [BDRip - AVC, Не требуется ...
  • Тормоз / Brake (Гейб Торрес, триллер, криминал, 2011) [HDRip-AVC, Профессио ...
  • ДухLess (Роман Прыгунов, Драма, 2012) [BDRip-AVC, Не требуется]
  • Облачный атлас / Cloud Atlas (Лана Вачовски, Том Тыквер, Энди Вачовски, фан ...
  • День учителя (Сергей Мокрицкий, драма, 2012) [DVDRip-AVC, Не требуется]
  • Иван Царевич и Серый Волк (Владимир Торопчин, мультфильм, семейный, 2011) [ ...
  • Скрат: Потерянный орех / Scrat: Gone Nutty (Карлос Салдана, короткометражка ...
  • Рейдер (Всеволод Аравин, драма, криминал, 2011) [BDRip 720p, оригинал]
  • История игрушек: Гавайские каникулы / Toy Story: Hawaiian Vacation (Гари ...
  • Лоракс: Серенада / The Lorax: Serenade (Кайл Балда, мультфильм, комедия, му ...
  • Павшая империя / Hirokin (Алехо Мо-Сан, фантастика, боевик, драма, приключе ...
  • Маугли [1973 / мультфильм / DVDRip]
  • Маугли (Роман Давыдов, мультфильм, приключения, семейный, 1973) [BDRip, Ори ...
  • Информация
    Посетители, находящиеся в группе Гости, не могут оставлять комментарии к данной публикации.