вход на сайт

Имя пользователя :
Пароль :

Восстановление пароля Регистрация
В поисках Немо / Finding Nemo (Эндрю Стэнтон / Andrew Stanton, Ли Анкрич / Lee Unkrich, комедия, приключения, семейный, 2003) [HDTVRip 1080i, Дублированный + Профессиональный (многоголосый) + Оригинал + SUB (Rus, Eng)]
Рейтинг:
(голосов: 1)



[img]{THEME}/images/logopost.png[/img]



В поисках Немо / Finding Nemo
Слоган «From the Creators of Monsters, Inc.»
Год выпуска: 2003
Страна: США / Австралия
Производство: Walt Disney Pictures / Pixar Animation Studios
Жанр: Комедия, приключения, семейный, мультфильм
Режиссёр: Эндрю Стэнтон / Andrew Stanton, Ли Анкрич / Lee Unkrich
В ролях: Альберт Брукс, Эллен ДеДженерес, Александр Гулд, Уиллем Дефо, Эрик Бана, Эллисон Джэнни, Остин Пендлтон, Стивен Рут, Викки Льюис, Джеффри Раш, Элизабет Перкинс, Джо Рэнфт
Перевод: Дублированный + Профессиональный (многоголосый) + Английский (оригинал) + Комментарии (оригинал)
Субтитры: Русские, Английские
Описание: Среди прекрасных тропических морских стихий, в районе Большого барьерного рифа в уединении живет рыба-клоун по имени Марлин. Он растит своего единственного сыночка Немо. Океан и существующие в нем опасности очень страшат Марлина, и он как может ограждает сына от них, но молодой Немо, страдающий излишним любопытством, очень хочет разузнать побольше о таинственном рифе, рядом с которым они живут.
Когда Немо по иронии судьбы оказывается вдалеке от дома, да и еще сталкивается с угрозой стать обедом рыбы-танка, Марлин отправляется на поиски сына. Но Марлин, конечно же, понимает, что героический спасатель из него не получится и просит о помощи в поисках, Дори, королевскую синюю рыбу, которая хоть и страдает от того, что почти ничего не помнит, но добрее ее не отыскать во всем безбрежном океане!
Итак, наши герои отправляются в путешествие, в котором их подкарауливают многочисленные трудности и опасности…

Качество: HDTVRip 1080i
Продолжительность: 01:40:35
Формат: MKV
Видео кодек: H.264
Аудио кодек: AC3 / DTS
Видео: MPEG4 (H264), 1920 x 1040, 23.976 fps, ~6140 Кбит/с, 0.125 bit/pix
Аудио #1: AC3, 320 Кбит/с, 48 kHz (6 ch) Дублированный
Аудио #2: DTS, 768 Кбит/с, 48 kHz (6 ch) Многоголосый
Аудио #3: AC3, 448 Кбит/с, 48 kHz (6 ch) Английский
Аудио #4: AC3, 192 Кбит/с, 48 kHz (2 ch) Commentary
MediaInfo ▼General
Complete name : Finding.Nemo.2003.HDTVRip.1080p.2xRus.Eng.mkv
Format : Matroska
File size : 5.52 GiB
Duration : 1h 40mn
Overall bit rate : 7 857 Kbps
Encoded date : UTC 2010-07-15 00:35:32
Writing application : mkvmerge v3.3.0 (Language) built on Mar 24 2010 14:59:24
Writing library : libebml v0.8.0 + libmatroska v0.9.0

Video
ID : 1
Format : AVC
Format/Info : Advanced Video Codec
Format profile : [email protected]
Format settings, CABAC : Yes
Format settings, ReFrames : 4 frames
Muxing mode : Container [email protected]
Codec ID : V_MPEG4/ISO/AVC
Duration : 1h 40mn
Bit rate : 5 986 Kbps
Width : 1 920 pixels
Height : 1 040 pixels
Display aspect ratio : 16:9
Frame rate : 23.976 fps
Color space : YUV
Chroma subsampling : 4:2:0
Bit depth : 8 bits
Scan type : Progressive
Bits/(Pixel*Frame) : 0.125
Stream size : 4.21 GiB (76%)
Title : Finding Nemo
Writing library : x264 core 102 r1666 d058f37
Encoding settings : cabac=1 / ref=4 / deblock=1:-3:-3 / analyse=0x3:0x133 / me=umh / subme=9 / psy=1 / psy_rd=1.00:0.00 / mixed_ref=1 / me_range=32 / chroma_me=0 / trellis=2 / 8x8dct=1 / cqm=0 / deadzone=21,11 / fast_pskip=0 / chroma_qp_offset=-2 / threads=6 / sliced_threads=0 / nr=0 / decimate=0 / interlaced=0 / constrained_intra=0 / bframes=6 / b_pyramid=2 / b_adapt=2 / b_bias=0 / direct=3 / weightb=0 / open_gop=0 / weightp=2 / keyint=250 / keyint_min=25 / scenecut=40 / intra_refresh=0 / rc_lookahead=60 / rc=crf / mbtree=1 / crf=18.5 / qcomp=0.60 / qpmin=10 / qpmax=51 / qpstep=4 / vbv_maxrate=50000 / vbv_bufsize=50000 / crf_max=0.0 / ip_ratio=1.40 / aq=1:0.60 / nal_hrd=none
Language : English

Audio #1
ID : 2
Format : AC-3
Format/Info : Audio Coding 3
Mode extension : CM (complete main)
Codec ID : A_AC3
Duration : 1h 40mn
Bit rate mode : Constant
Bit rate : 320 Kbps
Channel(s) : 6 channels
Channel positions : Front: L C R, Side: L R, LFE
Sampling rate : 48.0 KHz
Video delay : 22ms
Stream size : 230 MiB (4%)
049eebc1c714f99bdcab91275ceb5764362dc0e0В поисках Немо / Finding Nemo (Эндрю Стэнтон / Andrew Stanton, Ли Анкрич / Lee Unkrich, комедия, приключения, семейный, 2003) [HDTVRip 1080i, Дублированный + Профессиональный (многоголосый) + Оригинал + SUB (Rus, Eng)] В поисках Немо / Finding Nemo (Эндрю Стэнтон / Andrew Stanton, Ли Анкрич / Lee Unkrich, комедия, приключения, семейный, 2003) [HDTVRip 1080i, Дублированный + Профессиональный (многоголосый) + Оригинал + SUB (Rus, Eng)] " />

Аплоадер: Админ, дата: 3-12-2011, 14:40, торрент скачан: 359 раз

Понравилась раздача? Посмотрите эти:
  • В поисках Немо / Finding Nemo (Эндрю Стэнтон, Ли Анкрич, Мультфильм, комеди ...
  • В поисках Немо / Finding Nemo (Эндрю Стэнтон, Семейный, 2003) [ BDRip 720p, ...
  • UFC The Ultimate 100 Knockouts - PPV [MMA,2013, HDTVRip 720p]
  • [3D] Корпорация монстров / Monsters, Inc. (Пит Доктер, Дэвид Силверман, Ли ...
  • Персонаж / Stranger Than Fiction (Марк Форстер, Комедия, драма, фантастика, ...
  • Джон Картер / John Carter (Эндрю Стэнтон, Фантастика, 2012) [BDRip-AVC, Дуб ...
  • В поисках Немо / Finding Nemo (Эндрю Стэнтон, Ли Анкрич, мультфильм, комеди ...
  • В поисках Немо / Finding Nemo (Эндрю Стэнтон, Ли Анкрич, Мультфильм, комеди ...
  • В поисках Немо / Finding Nemo (Эндрю Стэнтон, Ли Анкрич, мультфильм, комеди ...
  • [3D] В поисках Немо / Finding Nemo (Эндрю Стэнтон, Ли Анкрич, Мультфильм, П ...
  • Один Дома / Home Alone (Крис Коламбус, комедия, приключения, семейный, 1990 ...
  • Далеко-далеко / Far and Away (Рон Ховард, драма, мелодрама, приключения, ве ...
  • В поисках Немо / Finding Nemo (Эндрю Стэнтон, Ли Анкрич, мультфильм, комеди ...
  • Формула 1. Сезон 2012. Этап 13 из 20. Гран-При Италии, Квалификация. [2012 ...
  • Mylene Farmer / Du Temps [2011, Pop, HDTVRip]
  • Mylene Farmer / Bleu Noir [2011, Pop, HDTVRip]
  • [3D] В поисках Немо / Finding Nemo (Эндрю Стэнтон, Ли Анкрич, мультфильм, к ...
  • В поисках Немо / Finding Nemo [2003,Мультфильм,DVDRip]
  • [EN] В поисках Немо / Finding Nemo [2003,Мультфильм,DVDRip]
  • В поисках Немо / Finding Nemo (Эндрю Стэнтон, Ли Анкрич, комедия, приключен ...
  • Джон Картер / John Carter (Эндрю Стэнтон, Фантастика, 2012) [BDRip-AVC, Дуб ...
  • [3D] В поисках Немо / Finding Nemo (Эндрю Стэнтон, Ли Анкрич, мультфильм, к ...
  • В поисках Немо / Finding Nemo (Эндрю Стэнтон, мультфильм, комедия, приключе ...
  • В поисках Немо / Finding Nemo (Эндрю Стэнтон, Ли Анкрич, Мультфильм, комеди ...
  • В поисках Немо / Finding Nemo (Эндрю Стэнтон, Ли Анкрич, Мультфильм, комеди ...
  • Информация
    Посетители, находящиеся в группе Гости, не могут оставлять комментарии к данной публикации.