вход на сайт

Имя пользователя :
Пароль :

Восстановление пароля Регистрация
Правдивая история Кота в сапогах / La véritable histoire du Chat Botté (Ришар Берри, мультфильм, 2009) [BDRip 720p, Профессиональный (полное дублирование), Оригинал]
Рейтинг:
(голосов: 1)



[img]{THEME}/images/logopost.png[/img]



Правдивая история Кота в сапогах | La véritable histoire du Chat Botté
«Котэ в сапогах..»

Год выпуска: 2009
Страна: Франция
Производство: Angoa-Agicoa
Жанр: мультфильм, комедия, приключения, семейный

Режиссёр: Ришар Берри
В ролях: Жером Дешам, Иоланда Моро, Луиз Валлон, Артур Дешам, Атмен Келиф, Андре Вильм

Перевод: Профессиональный (полное дублирование), Оригинал
Субтитры: Отсутствуют

Описание: Молодой мельник получает в наследство… кота. Кто мог подумать, что домашняя живность говорит по-человечьи, носит шляпу и сапоги? Обаятельный и хитроумный кот вотрется в доверие к любому и поможет хозяину завоевать сердце Принцессы! Но не только мельник хочет жениться на королевской дочке. Злодеи-конкуренты пойдут на всё, лишь бы свадьба мельника не состоялась.



"MediaInfo" ▼Общее
Уникальный идентификатор : 215180924389367060581591806745059985924 (0xA1E256ACCD2B60B4A245DD61C96F0A04)
Полное имя : H:торрентыpravdivaja_istorija_kota_v_sapogah_[tfile.ru].mkv
Формат : Matroska
Версия формата : Version 1
Размер файла : 4,63 Гбайт
Продолжительность : 1 ч. 22 м.
Общий поток : 8068 Кбит/сек
Дата кодирования : UTC 2009-10-14 00:00:05
Программа кодирования : mkvmerge v2.4.1 (Use Me) built on Dec 5 2008 15:43:32
Библиотека кодирования : libebml v0.7.7 + libmatroska v0.8.1

Видео
Идентификатор : 1
Формат : AVC
Формат/Информация : Advanced Video Codec
Профиль формата : [email protected]
Параметр CABAC формата : Да
Параметр ReFrames формата : 5 кадров
Идентификатор кодека : V_MPEG4/ISO/AVC
Продолжительность : 1 ч. 22 м.
Битрейт : 6109 Кбит/сек
Ширина : 1280 пикселей
Высота : 720 пикселей
Соотношение сторон : 16:9
Частота кадров : 24,000 кадра/сек
Цветовое пространство : YUV
Субдискретизация насыщенности : 4:2:0
Битовая глубина : 8 бит
Тип развёртки : Прогрессивная
Бит/(Пиксели*Кадры) : 0.276
Размер потока : 3,41 Гбайт (74%)
Заголовок : Video
Библиотека кодирования : x264 core 76 r1271 496d79d
Настройки программы : cabac=1 / ref=5 / deblock=1:0:0 / analyse=0x3:0x2 / me=umh / subme=7 / psy=1 / psy_rd=1.0:0.0 / mixed_ref=1 / me_range=16 / chroma_me=1 / trellis=1 / 8x8dct=1 / cqm=0 / deadzone=21,11 / chroma_qp_offset=-2 / threads=6 / nr=0 / decimate=1 / mbaff=0 / bframes=3 / b_pyramid=0 / b_adapt=1 / b_bias=0 / direct=1 / wpredb=1 / keyint=250 / keyint_min=25 / scenecut=40 / rc_lookahead=40 / rc=2pass / mbtree=1 / bitrate=6109 / ratetol=1.0 / qcomp=0.60 / qpmin=10 / qpmax=51 / qpstep=4 / cplxblur=20.0 / qblur=0.5 / ip_ratio=1.40 / aq=1:1.00
Язык : French

Аудио #1
Идентификатор : 2
Формат : AC-3
Формат/Информация : Audio Coding 3
Расширение режима : CM (complete main)
Идентификатор кодека : A_AC3
Продолжительность : 1 ч. 22 м.
Вид битрейта : Постоянный
Битрейт : 448 Кбит/сек
Каналы : 6 каналов
Расположение каналов : Front: L C R, Side: L R, LFE
Частота : 48,0 КГц
Битовая глубина : 16 бит
Метод сжатия : С потерями
Задержка видео : 8 с. 670 мс.
Размер потока : 263 Мбайт (6%)
Заголовок : Russian @ DD 5.1 @ 448 kbps
Язык : Russian

Аудио #2
Идентификатор : 3
Формат : DTS
Формат/Информация : Digital Theater Systems
Идентификатор кодека : A_DTS
Продолжительность : 1 ч. 22 м.
Вид битрейта : Постоянный
Битрейт : 1510 Кбит/сек
Каналы : 6 каналов
Расположение каналов : Front: L C R, Side: L R, LFE
Частота : 48,0 КГц
Битовая глубина : 24 бит
Метод сжатия : С потерями
Размер потока : 887 Мбайт (19%)
Заголовок : French @ DTS 5.1 @ 1536 kbps
Язык : French

Качество: BDRip 720p
Продолжительность: 01:22:10

Формат: MKV
Видео кодек: H.264
Аудио кодек: AC3/DTS
Видео: 1280x720p (16:9), 24.000 fps, AVC MPEG-4(H.264), [email protected], ~6109 Kbps avg, 0.276 bit/pixel
Аудио#1: Русский: 48 kHz, AC3, 6 ch, ~448 Kbps avg[Профессиональный (полное дублирование)]
Аудио#2: Французский: 48 kHz, DTS, 6 ch, ~1510 Kbps avg[Оригинал]


9f04f430349e8d877b8d27ad8c2dc2cbaf2313c1Правдивая история Кота в сапогах / La véritable histoire du Chat Botté (Ришар Берри, мультфильм, 2009) [BDRip 720p, Профессиональный (полное дублирование), Оригинал] Правдивая история Кота в сапогах / La véritable histoire du Chat Botté (Ришар Берри, мультфильм, 2009) [BDRip 720p, Профессиональный (полное дублирование), Оригинал] " />

Аплоадер: Админ, дата: 30-11-2011, 02:23, торрент скачан: 359 раз

Понравилась раздача? Посмотрите эти:
  • Джобс: Империя соблазна / jOBS (Джошуа Майкл Штерн, драма, биография, 2013) ...
  • Лавлэйс / Lovelace (Роб Эпштейн, Джеффри Фридман, драма, биография, 2013) [ ...
  • Больше чем мёд / More Than Honey (документальный, 2012) [BDRip 720p, Профес ...
  • Даю год / I Give It a Year (Дэн Мазер, мелодрама, комедия, 2012) [BDRip-AVC ...
  • Драйв / Drive (Николас Виндинг Рёфн, боевик, триллер, драма, криминал, 2011 ...
  • Профессионал / Killer Elite (Гэри МакКендри, боевик, 2011) [BDRip-AVC, Проф ...
  • Безумные мелодии: Кажется я видел котика / Looney Tunes: I Tawt I Taw а Pud ...
  • Скрат: Потерянный орех / Scrat: Gone Nutty (Карлос Салдана, короткометражка ...
  • История игрушек: Гавайские каникулы / Toy Story: Hawaiian Vacation (Гари ...
  • Заражение / Contagion (Стивен Содерберг, Фантастика, 2011) [BDRip 1080p, Пр ...
  • Скуби-Ду: Нападение Пантазаура / Scooby-Doo: Legend of the Phantosaur (Дугл ...
  • Переростки / The Inbetweeners (Бен Палмер / Ben Palmer, комедия, 2011) [BDR ...
  • Бедная богатая девочка / Young Adult (Джейсон Райтман, драма, комедия, 2011 ...
  • Лоракс: Серенада / The Lorax: Serenade (Кайл Балда, мультфильм, комедия, му ...
  • Павшая империя / Hirokin (Алехо Мо-Сан, фантастика, боевик, драма, приключе ...
  • Большой отрыв БОБа / B.O.B.s Big Break (Роберт Портер, короткометражка, ан ...
  • Петля времени / Looper (Райан Джонсон, Фантастика, боевик, триллер, кримина ...
  • Сейчас самое время / Now Is Good (Ол Паркер, Мелодрама, 2012) [BDRip-AVC, П ...
  • Правдивая история Кота в сапогах / La veritable histoire (Жером Дешам, Паск ...
  • Правдивая история Кота в сапогах / La veritable histoire du Chat Botte (Же ...
  • Информация
    Посетители, находящиеся в группе Гости, не могут оставлять комментарии к данной публикации.