вход на сайт

Имя пользователя :
Пароль :

Восстановление пароля Регистрация
Геркулес / Hercules (Рон Клементс, Джон Маскер, Мультфильм, 1997 г.)[HDTVRip 720p (от "CtrlHD") , профессиональный дубляж; авторский Санаева, Н. "Антонова", многоголосый НТВ]
Рейтинг:
(голосов: 1)



[img]{THEME}/images/logopost.png[/img]



Геркулес / Hercules

Год выпуска: 1997
Страна: США.
Производство: Walt Disney
Жанр: Мультипликационный фильм, комедия, приключения, мюзикл

Режиссёр: Рон Клементс, Джон Маскер
Художники: Джералд Скарф, Энди Гэскилл, Кейт Берг

Перевод: Профессиональный дубляж; авторский Санаева, Н. "Антонова", многоголосый НТВ.
Субтитры: русские (по НТВ), английские

Описание: Правитель подземного царства Аид сверг потомка богов с Олимпа, и теперь, чтобы вернуться на священную гору, Геркулес должен совершить подвиг и стать настоящим героем. Вместе с волшебным конем Пегасом он сражается с Титанами и чудовищами вечной тьмы. Но самое серьезное испытание ждет героя в царстве теней - там, в вековой тишине подземелья, Геркулесу не помогут боги с далекого Олимпа, ведь только доброе сердце и настоящая любовь способны победить силы зла!..

IMDB: рейтинг 6.80 (22 069)
КиноПоиск: рейтинг 7.888 (7368)

"Mediainfo" ▼General
Unique ID : 239927424103973056965767877062226435076 (0xB480574F74C27D89B627736B99215C04)
Complete name : Disneys.Hercules.1997.720p.HDTV.DD5.1.Rus.Eng.NTV.MVO.x264.mkv
Format : Matroska
File size : 3.54 GiB
Duration : 1h 33mn
Overall bit rate : 5 446 Kbps
Movie name : ~Sahaa~
Encoded date : UTC 2010-12-31 06:50:33
Writing application : mkvmerge v4.4.0 (Die Wiederkehr) сборка от Nov 7 2010 22:17:07
Writing library : libebml v1.0.0 + libmatroska v1.0.0

Video
ID : 1
Format : AVC
Format/Info : Advanced Video Codec
Format profile : [email protected]
Format settings, CABAC : Yes
Format settings, ReFrames : 9 frames
Muxing mode : Header stripping
Codec ID : V_MPEG4/ISO/AVC
Duration : 1h 33mn
Bit rate : 3 800 Kbps
Width : 1 280 pixels
Height : 720 pixels
Display aspect ratio : 16:9
Frame rate : 23.976 fps
Color space : YUV
Chroma subsampling : 4:2:0
Bit depth : 8 bits
Scan type : Progressive
Bits/(Pixel*Frame) : 0.172
Stream size : 2.39 GiB (67%]
Title : x264 2 pass
Writing library : x264 core 109 r1790+347 dcd2519
Encoding settings : cabac=1 / ref=9 / deblock=1:-2:-2 / analyse=0x3:0x133 / me=tesa / subme=10 / psy=1 / fade_compensate=0.80 / psy_rd=1.00:0.00 / mixed_ref=1 / me_range=32 / chroma_me=1 / trellis=2 / 8x8dct=1 / cqm=0 / deadzone=21,11 / fast_pskip=0 / chroma_qp_offset=-2 / threads=6 / sliced_threads=0 / nr=0 / decimate=0 / interlaced=0 / constrained_intra=0 / fgo=0 / bframes=7 / b_pyramid=2 / b_adapt=2 / b_bias=0 / direct=3 / weightb=1 / open_gop=0 / weightp=2 / keyint=240 / keyint_min=24 / scenecut=40 / intra_refresh=0 / rc_lookahead=150 / rc=2pass / mbtree=1 / bitrate=3800 / ratetol=1.0 / qcomp=0.60 / qpmin=10 / qpmax=51 / qpstep=4 / cplxblur=20.0 / qblur=0.5 / ip_ratio=1.40 / aq=1:1.00
Language : English

Audio #1
ID : 2
Format : AC-3
Format/Info : Audio Coding 3
Mode extension : CM (complete main)
Muxing mode : Header stripping
Codec ID : A_AC3
Duration : 1h 33mn
Bit rate mode : Constant
Bit rate : 192 Kbps
Channel(s) : 2 channels
Channel positions : Front: L R
Sampling rate : 48.0 KHz
Bit depth : 16 bits
Compression mode : Lossy
Stream size : 128 MiB (4%]
Title : Дубляж
Language : Russian

Audio #2
ID : 3
Format : AC-3
Format/Info : Audio Coding 3
Mode extension : CM (complete main)
Muxing mode : Header stripping
Codec ID : A_AC3
Duration : 1h 33mn
Bit rate mode : Constant
Bit rate : 448 Kbps
Channel(s) : 6 channels
Channel positions : Front: L C R, Side: L R, LFE
Sampling rate : 48.0 KHz
Bit depth : 16 bits
Compression mode : Lossy
Stream size : 298 MiB (8%]
Title : Санаев
Language : Russian

Audio #3
ID : 4
Format : AC-3
Format/Info : Audio Coding 3
Mode extension : CM (complete main)
Muxing mode : Header stripping
Codec ID : A_AC3
Duration : 1h 33mn
Bit rate mode : Constant
Bit rate : 192 Kbps
Channel(s) : 2 channels
Channel positions : Front: L R
Sampling rate : 48.0 KHz
Bit depth : 16 bits
Compression mode : Lossy
Stream size : 128 MiB (4%]
Title :
1ae3ffdb30ff2b170bd1acd35ab49632ac15275bГеркулес / Hercules (Рон Клементс, Джон Маскер, Мультфильм, 1997 г.)[HDTVRip 720p (от "CtrlHD") , профессиональный дубляж; авторский Санаева, Н. "Антонова", многоголосый НТВ] Геркулес / Hercules (Рон Клементс, Джон Маскер, Мультфильм, 1997 г.)[HDTVRip 720p (от "CtrlHD") , профессиональный дубляж; авторский Санаева, Н. "Антонова", многоголосый НТВ] " />

Аплоадер: Админ, дата: 1-07-2011, 19:31, торрент скачан: 359 раз

Понравилась раздача? Посмотрите эти:
  • Геркулес / Hercules (Рон Клементс, Джон Маскер, мультфильм, мюзикл, фэнтези ...
  • Ледяной / The Iceman (Ариэль Вромен, драма, криминал, биография, 2013) [BDR ...
  • Геркулес / Hercules (Рон Клементс, Джон Маскер, Мультфильм, 1997)[HDTVRip 1 ...
  • UFC The Ultimate 100 Knockouts - PPV [MMA,2013, HDTVRip 720p]
  • Чемпионат Мира по хоккею 2013 / Четвертьфинал / Россия - США / 1 HD [Хокке ...
  • Водитель / The Driver (Уолтер Хилл, Боевик, триллер, драма, криминал, 1978) ...
  • Убить по расписанию / Ticking Clock (Эрни Барбараш, фантастика, боевик, три ...
  • Цельнометаллическая оболочка / Full Metal Jacket (Стэнли Кубрик, драма, вое ...
  • Охота за "Красным Октябрём" / The Hunt for "Red October" (Джон МакТирнан, б ...
  • Геркулес / Hercules (Рон Клементс, Джон Маскер, комедия, мультфильм, 1997) ...
  • Геркулес / Hercules (Рон Клементс, Джон Маскер, мультфильм, мюзикл, фэнтези ...
  • Геркулес / Hercules (Рон Клементс / Ron Clements, мультфильм, 1997) [HDRip ...
  • Бомж с дробовиком / Hobo with a Shotgun (Джейсон Айзенер / Jason Eisener, С ...
  • Исходный код / Source Code (Дункан Джонс, фантастика, боевик, триллер, 2011 ...
  • Чаббчаббы спасают Рождество / The Chubbchubbs Save Xmas (Коуди Камерон, мул ...
  • Римские каникулы / Roman Holiday (Уильям Уайлер, драма, мелодрама, комедия, ...
  • Далеко-далеко / Far and Away (Рон Ховард, драма, мелодрама, приключения, ве ...
  • Похищенная / A Lonely Place to Die (Джулиан Джилби, триллер, криминал, прик ...
  • Ворон / The Raven (Джеймс МакТиг, Триллер, детектив, 2012) [BDRip 720p, Дуб ...
  • Небесные охотники. Мир стрекоз / Libellen. Die Himmelsjaeger (Курт Мюндл, Д ...
  • Пираньи 3DD / Piranha 3DD (Джон Гулажер, ужасы, триллер, комедия, 2012) [BD ...
  • Формула 1. Сезон 2012. Этап 13 из 20. Гран-При Италии, Квалификация. [2012 ...
  • Mylene Farmer / Du Temps [2011, Pop, HDTVRip]
  • Mylene Farmer / Bleu Noir [2011, Pop, HDTVRip]
  • Футбольные гладиаторы / Ушедшее время / Awaydays (Пэт Холден, драма, кримин ...
  • Информация
    Посетители, находящиеся в группе Гости, не могут оставлять комментарии к данной публикации.