вход на сайт

Имя пользователя :
Пароль :

Восстановление пароля Регистрация
Ренессанс / Renaissance (Кристиан Волькман / мультфильм, фантастика, боевик, триллер, драма / 2006) [HDRip 720p, Профессиональный (многоголосый закадровый) + SUB]
Рейтинг:
(голосов: 1)



[img]{THEME}/images/logopost.png[/img]



• Ренессанс / Renaissance •
Год выпуска: 2006г.
Страна: Франция, Великобритания, Люксембург
Производство: Onyx Films, France 2 Cinéma, Backup Films
Жанр: мультфильм, фантастика, боевик, триллер, драма
Режиссёр: Кристиан Волькман
Роли озвучивали:: Дэниэл Крэйг, Ромола Гарай,Иэн Холм, Кеворк Маликян, Катрин МакКормак, Джонатан Прайс, Макс Хэйтер.
Перевод: Профессиональный (многоголосый закадровый)
Субтитры: Русские, Английские, Французские
Описание:
2054 год. Париж превратился в лабиринт, в котором каждый шаг отслеживается и записывается на пленку. На всем лежит тень компании «Авалон», торгующей красотой и молодостью. Неожиданно из компании похищают молодого ученого Илону, на розыск которой отправляется полицейский Карас.
Начиная опасное расследование, Карас попадает в параллельный мир корпоративного шпионажа, организованной преступности и генетических исследований, в котором ему открывается истина и являются чудеса, за обладание которыми придется заплатить высокую цену.

Качество: HDRip 720p
Продолжительность: 01:45:09

Формат: MKV
Видео кодек: AVC
Аудио кодек: AC-3
Видео: 1280x544 (2.35:1), 23.976 fps, 3 824 kbps avg, 0.229 bit/pixel
Аудио: AC-3, 48 kHz, 6 ch, 448 kbps avg (RUS)
MediaInfo ▼TextGeneral
Видео
Идентификатор : 1
Формат : AVC
Формат/Информация : Advanced Video Codec
Профиль формата : [email protected]
Параметр CABAC формата : Да
Параметр ReFrames формата : 5 кадры
Идентификатор кодека : V_MPEG4/ISO/AVC
Продолжительность : 1 ч. 45 м.
Вид битрейта : Переменный
Битрейт : 3824 Кбит/сек
Номинальный битрейт : 4980 Кбит/сек
Максимальный битрейт : 50,0 Мбит/сек
Ширина : 1280 пикс.
Высота : 544 пикс.
Соотношение сторон : 2,35:1
Частота кадров : 23,976 кадр/сек
Цветовое пространство : YUV
Подвыборка цветности : 4:2:0
Битовая глубина : 8 бит
Тип развёртки : Прогрессивная
Бит/(Пиксели*Кадры) : 0.229
Размер потока : 2,82 Гбайт (88%)
Библиотека кодирования : x264 core 112 r1867 22bfd31
Настройки программы : cabac=1 / ref=5 / deblock=1:-2:-2 / analyse=0x3:0x113 / me=umh / subme=10 / psy=1 / psy_rd=1.00:0.20 / mixed_ref=1 / me_range=62 / chroma_me=1 / trellis=2 / 8x8dct=1 / cqm=1 / deadzone=21,11 / fast_pskip=0 / chroma_qp_offset=-5 / threads=8 / sliced_threads=0 / nr=0 / decimate=1 / interlaced=0 / constrained_intra=0 / bframes=6 / b_pyramid=2 / b_adapt=2 / b_bias=0 / direct=3 / weightb=1 / open_gop=0 / weightp=2 / keyint=250 / keyint_min=23 / scenecut=70 / intra_refresh=0 / rc_lookahead=60 / rc=2pass / mbtree=0 / bitrate=4980 / ratetol=1.0 / qcomp=0.60 / qpmin=10 / qpmax=51 / qpstep=4 / cplxblur=20.0 / qblur=0.5 / vbv_maxrate=50000 / vbv_bufsize=50000 / nal_hrd=vbr / ip_ratio=1.40 / pb_ratio=1.30 / aq=2:0.90

Аудио
Идентификатор : 2
Формат : AC-3
Формат/Информация : Audio Coding 3
Расширение режима : CM (complete main)
Идентификатор кодека : A_AC3
Продолжительность : 1 ч. 45 м.
Вид битрейта : Постоянный
Битрейт : 448 Кбит/сек
Канал(ы) : 6 канала(ов)
Расположение каналов : Front: L C R, Side: L R, LFE
Частота : 48,0 КГц
Битовая глубина : 16 бит
Метод сжатия : С потерями
Размер потока : 338 Мбайт (10%)
Заголовок : MVO R5
Язык : Russian

Текст #1
Идентификатор : 3
Формат : UTF-8
Идентификатор кодека : S_TEXT/UTF8
Идентификатор кодека/Информация : UTF-8 Plain Text
Заголовок : Russian
Язык : Russian

Текст #2
Идентификатор : 4
Формат : UTF-8
Идентификатор кодека : S_TEXT/UTF8
Идентификатор кодека/Информация : UTF-8 Plain Text
Заголовок : English
Язык : English

Текст #3
Идентификатор : 5
Формат : UTF-8
Идентификатор кодека : S_TEXT/UTF8
Идентификатор кодека/Информация : UTF-8 Plain Text
Заголовок : French
Язык : French

Текст #4
Идентификатор : 6
Формат : ASS
Идентификатор кодека : S_TEXT/ASS
Идентификатор кодека/Информация : Advanced Sub Station Alpha
Метод сжатия : Без потерь
Заголовок : English for english soundtrack
Язык : English

Текст #5
Идентификатор : 7
Формат : ASS
Идентификатор кодека : S_TEXT/ASS
Идентификатор кодека/Информация : Advanced
1f153dadde703d897cc4832797878e2fc6878b00Ренессанс / Renaissance (Кристиан Волькман / мультфильм, фантастика, боевик, триллер, драма / 2006) [HDRip 720p, Профессиональный (многоголосый закадровый) + SUB] Ренессанс / Renaissance (Кристиан Волькман / мультфильм, фантастика, боевик, триллер, драма / 2006) [HDRip 720p, Профессиональный (многоголосый закадровый) + SUB] " />

Аплоадер: Админ, дата: 4-03-2011, 19:58, торрент скачан: 359 раз

Понравилась раздача? Посмотрите эти:
  • Бунраку / Bunraku (Гай Моше, боевик, триллер, драма, 2010) [BDRip-AVC, Проф ...
  • Заложница / Taken (Пьер Морель, Боевик, триллер, криминал, 2008) [BDRip-AVC ...
  • Война миров Z / World War Z [Расширенная версия] (Марк Форстер, ужасы, фант ...
  • Зажигание / Combustion [SPA-Transfer] (Даниэль Кальпарсоро, Мелодрама, при ...
  • Гадкий я 2 / Despicable Me 2 (Пьер Соффин, Крис Рено, мультфильм, фантастик ...
  • Наблюдатель / Le guetteur (Микеле Плачидо, Боевик, криминал, 2012) [BDRip-A ...
  • Железный Кулак [Театральная версия] / The Man with the Iron Fists [Theatric ...
  • Восстание планеты обезьян/ Planet of the Apes(Руперт Уайатт,Фантастика,Прик ...
  • Начинающие / Beginners (Майк Миллс / Mike Mills, драма, мелодрама, комедия, ...
  • Начинающие / Beginners (Майк Миллс / Mike Mills, драма, мелодрама, комедия, ...
  • Санта на продажу / Rare Exports (Ялмари Хеландер, фэнтези, боевик, комедия, ...
  • Люди Икс: Первый класс / X-Men: First Class (Мэттью Вон / Matthew Vaughn, ф ...
  • Тонкий Лед / The Convincer (Джилл Шпрехер, Драма, комедия, криминал, 2011) ...
  • Морской бой / Battleship (Питер Берг, фантастика, боевик, триллер, приключе ...
  • Морской бой / Battleship (Питер Берг, Фантастика, боевик, триллер, приключе ...
  • Безумные мелодии: Кажется я видел котика / Looney Tunes: I Tawt I Taw а Pud ...
  • Эксперимент / The Experiment (Пол Шойринг / Paul Scheuring, драма, триллер, ...
  • 9,99 долларов / $9.99 (Татья Розенталь / мультфильм, драма / 2008) [BDRip 7 ...
  • Бульвар спасения / Salvation Boulevard (Джордж Рэтлифф, Боевик, триллер, др ...
  • Павшая империя / Hirokin (Алехо Мо-Сан, фантастика, боевик, драма, приключе ...
  • Миньоны / Minions (Пьер Коффин, Крис Рено, короткометражка, анимация, мульт ...
  • Ворон / The Crow (Алекс Пройас, фэнтези, боевик, триллер, 1994) [BDRip 720p ...
  • Боб Марли / Marley (Кевин МакДональд, Документальный, биография, музыка, 20 ...
  • Преследование / Слежка / Following (Кристофер Нолан, триллер, драма, кримин ...
  • Тайна Келлc / The Secret of Kells (Томм Мур, Мультфильм, приключения, фэнте ...
  • Информация
    Посетители, находящиеся в группе Гости, не могут оставлять комментарии к данной публикации.