вход на сайт

Имя пользователя :
Пароль :

Восстановление пароля Регистрация
Футурама: Зверь с миллиардом спин / Futurama: The Beast with a Billion Backs (Питер Аванзино / мультфильм, фантастика, боевик, мелодрама, комедия / 2008) [BDRip 1080p, Профессиональный (многоголосый закадровый) + Оригинал + SUB]
Рейтинг:
(голосов: 1)



[img]{THEME}/images/logopost.png[/img]



• Футурама: Зверь с миллиардом спин / Futurama: The Beast with a Billion Backs •
Год выпуска: 2008г.
Страна: США
Производство: 20th Century Fox Television, Curiosity Company
Жанр: мультфильм, фантастика, боевик, мелодрама, комедия
Режиссёр: Питер Аванзино
Роли озвучивали:: Билли Уэст, Кэти Сагал, Джон Ди Маджио, Тресс МакНилл, Морис ЛаМарш, Фил ЛаМарр, Лоурен Том, Дэвид Херман, Дэн Кастелланета, Дэвид Кросс.
Перевод: Профессиональный (многоголосый закадровый) + Оригинал (англоязычная звуковая дорожка)
Субтитры: Русские, Английские
Описание:
События происходят непосредственно после «Большого куша Бендера».
Огромный раскол в пространстве и времени позволяет отвратительному, размером с планету монстру из другой вселенной проникнуть на Землю. Он берёт под контроль Фрая, делая из него Папу новой религии, которая охватывает всю планету и в последствие приводит к тому, что население покидает Землю, оставляя её в руках роботов.

Качество: BDRip 1080p
Продолжительность:01:25:04

Формат: MKV
Видео кодек: AVC
Аудио кодек: AC-3
Видео: 1920x1080 (1.77:1), 25.000 fps, 4 594 kbps avg, 0.089 bit/pixel
Аудио#1: AC-3, 48 kHz, 6 ch, 384 kbps avg (RUS)
Аудио#2: AC-3, 48 kHz, 6 ch, 448 kbps avg (ENG)
MediaInfo ▼TextGeneral
Video
ID : 1
Format : AVC
Format/Info : Advanced Video Codec
Format profile : [email protected]
Format settings, CABAC : Yes
Format settings, ReFrames : 4 frames
Format settings, GOP : N=1
Codec ID : V_MPEG4/ISO/AVC
Duration : 1h 25mn
Bit rate : 4 594 Kbps
Width : 1 920 pixels
Height : 1 080 pixels
Display aspect ratio : 16:9
Frame rate : 25.000 fps
Color space : YUV
Chroma subsampling : 4:2:0
Bit depth : 8 bits
Scan type : Progressive
Bits/(Pixel*Frame) : 0.089
Stream size : 2.73 GiB (83%)
Writing library : x264 core 65 r1069 ed32ad2
Encoding settings : cabac=1 / ref=4 / deblock=1:-2:-2 / analyse=0x3:0x133 / me=esa / subme=9 / psy_rd=0.6:0.0 / mixed_ref=1 / me_range=24 / chroma_me=1 / trellis=0 / 8x8dct=1 / cqm=0 / deadzone=21,11 / chroma_qp_offset=-2 / threads=3 / nr=0 / decimate=1 / mbaff=0 / bframes=4 / b_pyramid=1 / b_adapt=2 / b_bias=0 / direct=1 / wpredb=0 / keyint=250 / keyint_min=25 / scenecut=40(pre) / rc=crf / crf=18.0 / qcomp=0.60 / qpmin=10 / qpmax=51 / qpstep=4 / ip_ratio=1.40 / pb_ratio=1.30 / aq=1:0.60
Language : English

Audio #1
ID : 2
Format : AC-3
Format/Info : Audio Coding 3
Mode extension : CM (complete main)
Codec ID : A_AC3
Duration : 1h 25mn
Bit rate mode : Constant
Bit rate : 384 Kbps
Channel(s) : 6 channels
Channel positions : Front: L C R, Side: L R, LFE
Sampling rate : 48.0 KHz
Bit depth : 16 bits
Compression mode : Lossy
Stream size : 234 MiB (7%)
Language : Russian

Audio #2
ID : 3
Format : AC-3
Format/Info : Audio Coding 3
Mode extension : CM (complete main)
Codec ID : A_AC3
Duration : 1h 25mn
Bit rate mode : Constant
Bit rate : 448 Kbps
Channel(s) : 6 channels
Channel positions : Front: L C R, Side: L R, LFE
Sampling rate : 48.0 KHz
Bit depth : 16 bits
Compression mode : Lossy
Stream size : 273 MiB (8%)
Language : English

Text #1
ID : 4
Format : UTF-8
Codec ID : S_TEXT/UTF8
Codec ID/Info : UTF-8 Plain Text
Language : Russian

Text #2
ID : 5
Format : UTF-8
Codec ID : S_TEXT/UTF8
Codec ID/Info : UTF-8 Plain Text
Language : English
Релиз Группы "Virtus"

Стол заказов по рипам / Вступление в РГ / Благодарности, критика и другое


1997dbcb670ec0e1234fca60902511db62f60306Футурама: Зверь с миллиардом спин / Futurama: The Beast with a Billion Backs (Питер Аванзино / мультфильм, фантастика, боевик, мелодрама, комедия / 2008) [BDRip 1080p, Профессиональный (многоголосый закадровый) + Оригинал + SUB] Футурама: Зверь с миллиардом спин / Futurama: The Beast with a Billion Backs (Питер Аванзино / мультфильм, фантастика, боевик, мелодрама, комедия / 2008) [BDRip 1080p, Профессиональный (многоголосый закадровый) + Оригинал + SUB] " />

Аплоадер: Админ, дата: 28-02-2011, 23:55, торрент скачан: 359 раз

Понравилась раздача? Посмотрите эти:
  • Армагеддец / The Worlds End (Эдгар Райт, фантастика, боевик, комедия, 2013) ...
  • За кадром... / In a World...(Лэйк Белл, комедия, 2013) [BDRip-AVC, Професси ...
  • Пастырь / Priest (Скотт Чарльз Стюарт, ужасы, фантастика, боевик, триллер, ...
  • Посылка / The Package (Джесси Джонсон, боевик, 2013) [BDRip 720p, Профессио ...
  • Запретная любовь / The Edge of Love (Джон Мэйбери, Драма, мелодрама, военны ...
  • Безопасность не гарантируется / Safety Not Guaranteed (Колин Треворроу, фан ...
  • Напряги Извилины / Get Smart (Питер Сигал, Комедия, боевик, приключения ...
  • Суррогат / The Sessions (Бен Луин, драма, 2012) [BDRip 720p, Профессиональн ...
  • Джекпот / Arme Riddere (Магнус Мартенс, Боевик, комедия, криминал, 2011) [B ...
  • Зубная фея 2 / Tooth Fairy 2 (Алекс Замм, комедия, семейный, 2012) [BDRip 7 ...
  • Убить по расписанию / Ticking Clock (Эрни Барбараш, фантастика, боевик, три ...
  • Цельнометаллическая оболочка / Full Metal Jacket (Стэнли Кубрик, драма, вое ...
  • Персонаж / Stranger Than Fiction (Марк Форстер, Комедия, драма, фантастика, ...
  • Идеальный Голос / Pitch Perfect (Джейсон Мур, Комедия, музыка, 2012) [BDRip ...
  • Футурама: Игра Бендера / Futurama: Benders Game (Дуэйн Кэри-Хилл / мультфил ...
  • Гриффины: Это ловушка! / Family Guy Presents: Its a Trap! (Питер Шин / муль ...
  • Футурама: Все 4 полнометражные части / Futurama (Питер Аванзино / Дуэйн Кэ ...
  • Один Дома / Home Alone (Крис Коламбус, комедия, приключения, семейный, 1990 ...
  • Ледниковый период: Гигантское Рождество / Ice Age: A Mammoth Christmas (Кар ...
  • Чаббчаббы спасают Рождество / The Chubbchubbs Save Xmas (Коуди Камерон, мул ...
  • Похищенная / A Lonely Place to Die (Джулиан Джилби, триллер, криминал, прик ...
  • Футурама: Зверь с миллиардом спин / Futurama: The Beast with a Billion Back ...
  • Нет мужчин - нет проблем / Without Men (Габриела Тальявини / Gabriela Tagli ...
  • Сверхновый Супермен / All-Star Superman (Сэм Лью, мультфильм, фантастика, б ...
  • Хостел 3 / Hostel: Part III (Скотт Спигел / Scott Spiegel, ужасы, триллер, ...
  • Информация
    Посетители, находящиеся в группе Гости, не могут оставлять комментарии к данной публикации.