вход на сайт

Имя пользователя :
Пароль :

Восстановление пароля Регистрация
Трио из Бельвилля / Les triplettes de Belleville (Сильвен Шомэ / мультфильм, драма, комедия, приключения, музыка / 2003) [HDRip 720p, Профессиональный (многоголосый закадровый) + Французкая дорожка + SUB]
Рейтинг:
(голосов: 1)



[img]{THEME}/images/logopost.png[/img]



• Трио из Бельвилля / Les triplettes de Belleville •
Год выпуска: 2003г.
Страна: Канада, Франция, Великобритания, Бельгия
Производство: Les Armateurs, Production Champion, Vivi Film
Жанр: мультфильм, драма, комедия, приключения, музыка
Режиссёр: Сильвен Шомэ
Роли озвучивали:: Беатрис Бонифасси, Лина Бодро, Мишель Кочето, Жан-Клод Донда, Мари-Лу Готье, Чарльз Линтон, Мишель Робен, Моника Виега.
Перевод: Профессиональный (многоголосыйзакадровый) + Французкая дорожка
Субтитры: English, French, Romanian
Описание:
Чемпион — маленький мальчик, усыновленный своей бабушкой мадам Сузой. Мадам Суза замечает, что наиболее счастливым мальчик чувствует себя верхом на велосипеде, и поэтому настаивает на том, чтобы он самым серьезным образом тренировался. Проходят годы и, наконец, Чемпион становится достойным собственного имени. Он готов участвовать во всемирно известной гонке Тур-де-Франс. Но во время соревнования двое таинственных неизвестных в черном выкрадывают Чемпиона. Мадам Суза и ее верный пес Брюно должны его освободить.
Во время поисков они оказываются за океаном в огромном мегаполисе Бельвилль и встречают известных «бельвилльских тройняшек» — трех эксцентричных звезд-певиц мюзик-холла 30-х годов. «Тройняшки» берут мадам Сузу и Брюно под свою опеку. Благодаря острому нюху Бруно храбрая пара вскоре нападает на след Чемпиона. Но удастся ли им расстроить дьявольские планы злобной французской мафии?

Качество: HDRip 720p
Продолжительность: 01:20:40

Формат: MKV
Видео кодек: AVC
Аудио кодек: AC-3 / DTS
Видео: 1216x720 (1.68:1), 23.976 fps, 3662 kbps avg, 0.174 bit/pixel
Аудио#1: 48 kHz, 2 ch, 320 kbps avg (RUS)
Аудио#2: 48 kHz, 6 ch, 1510 kbps avg (FRE)
MediaInfo ▼TextGeneral
Video #1
ID : 1
Format : AVC
Format/Info : Advanced Video Codec
Format profile : [email protected]
Format settings, CABAC : Yes
Format settings, ReFrames : 13 frames
Codec ID : V_MPEG4/ISO/AVC
Duration : 1h 20mn
Bit rate : 3 662 Kbps
Width : 1 216 pixels
Height : 720 pixels
Display aspect ratio : 1.689
Frame rate : 23.976 fps
Color space : YUV
Chroma subsampling : 4:2:0
Bit depth : 8 bits
Scan type : Progressive
Bits/(Pixel*Frame) : 0.174
Stream size : 2.00 GiB (65%)
Writing library : x264 core 56 svn-680
Encoding settings : cabac=1 / ref=10 / deblock=1:-3:-3 / analyse=0x3:0x133 / me=umh / subme=7 / brdo=1 / mixed_ref=1 / me_range=16 / chroma_me=1 / trellis=0 / 8x8dct=1 / cqm=2 / deadzone=9,9 / chroma_qp_offset=0 / threads=3 / nr=0 / decimate=1 / mbaff=0 / bframes=10 / b_pyramid=1 / b_adapt=1 / b_bias=0 / direct=1 / wpredb=1 / bime=1 / keyint=250 / keyint_min=25 / scenecut=40(pre) / rc=2pass / bitrate=3662 / ratetol=1.0 / rceq=blurCplx^(1-qComp) / qcomp=0.60 / qpmin=10 / qpmax=51 / qpstep=4 / cplxblur=20.0 / qblur=0.5 / ip_ratio=1.40 / pb_ratio=1.30 / aq=1:0.7:15.0
Language : English
Audio #2
ID : 2
Format : AC-3
Format/Info : Audio Coding 3
Mode extension : CM (complete main)
Codec ID : A_AC3
Duration : 1h 20mn
Bit rate mode : Constant
Bit rate : 320 Kbps
Channel(s) : 2 channels
Channel positions : Front: L R
Sampling rate : 48.0 KHz
Bit depth : 16 bits
Compression mode : Lossy
Stream size : 185 MiB (6%)
Title : AC3 2.0 at 320 kbps
&n
2cd0d86ac2e0baf7645ee289c596f65bf4e0698bТрио из Бельвилля / Les triplettes de Belleville (Сильвен Шомэ / мультфильм, драма, комедия, приключения, музыка / 2003) [HDRip 720p, Профессиональный (многоголосый закадровый) + Французкая дорожка + SUB] Трио из Бельвилля / Les triplettes de Belleville (Сильвен Шомэ / мультфильм, драма, комедия, приключения, музыка / 2003) [HDRip 720p, Профессиональный (многоголосый закадровый) + Французкая дорожка + SUB] " />

Аплоадер: Админ, дата: 27-02-2011, 08:59, торрент скачан: 359 раз

Понравилась раздача? Посмотрите эти:
  • Погнали! / Getaway (Кортни Соломон, боевик, криминал, 2013) [BDRip 720p, Пр ...
  • Смерть на похоронах / Death at a Funeral (Нил ЛаБут, комедия, 2010) [BDRip ...
  • Безопасность не гарантируется / Safety Not Guaranteed (Колин Треворроу, фан ...
  • Водитель / The Driver (Уолтер Хилл, Боевик, триллер, драма, криминал, 1978) ...
  • Суррогат / The Sessions (Бен Луин, драма, 2012) [BDRip 720p, Профессиональн ...
  • Идеальный Голос / Pitch Perfect (Джейсон Мур, Комедия, музыка, 2012) [BDRip ...
  • Футурама: Игра Бендера / Futurama: Benders Game (Дуэйн Кэри-Хилл / мультфил ...
  • Приготовление и начало / Prep And Landing (Кевин Детерс, мультфильм, коротк ...
  • Гриффины: Это ловушка! / Family Guy Presents: Its a Trap! (Питер Шин / муль ...
  • Футурама: Зверь с миллиардом спин / Futurama: The Beast with a Billion Back ...
  • Геркулес / Hercules (Рон Клементс, Джон Маскер, Мультфильм, 1997 г.)[HDTVRi ...
  • Один Дома / Home Alone (Крис Коламбус, комедия, приключения, семейный, 1990 ...
  • Чаббчаббы спасают Рождество / The Chubbchubbs Save Xmas (Коуди Камерон, мул ...
  • Далеко-далеко / Far and Away (Рон Ховард, драма, мелодрама, приключения, ве ...
  • Вся королевская рать / All the Kings Men (Стивен Зеллиан, триллер, драма, 2 ...
  • Похищенная / A Lonely Place to Die (Джулиан Джилби, триллер, криминал, прик ...
  • Mylene Farmer / Du Temps [2011, Pop, HDTVRip]
  • Mylene Farmer / Bleu Noir [2011, Pop, HDTVRip]
  • Нет мужчин - нет проблем / Without Men (Габриела Тальявини / Gabriela Tagli ...
  • Трио из Бельвилля / Les triplettes de Belleville (Сильвен Шомэ, мультфильм, ...
  • Информация
    Посетители, находящиеся в группе Гости, не могут оставлять комментарии к данной публикации.