вход на сайт

Имя пользователя :
Пароль :

Восстановление пароля Регистрация
Подводная братва / Shark Tale (Бибо Бержерон, Вики Дженсон, Комедия, семейный, мультфильм, 2004) [HDTVRip 1080p, Дублированный + оригинал]
Рейтинг:
(голосов: 1)



[img]{THEME}/images/logopost.png[/img]



Подводная братва / Shark Tale

"Мальки ответят за базар..."


Год выпуска: 2004
Страна: США
Производство: DreamWorks Animation
Жанр: комедия, семейный, мультфильм

Режиссёр: Бибо Бержерон, Вики Дженсон
В ролях (роли озвучивали): Уилл Смит, Роберт Де Ниро, Рене Зеллвегер, Джек Блэк, Анджелина Джоли, Мартин Скорсезе, Зигги Марли, Даг Э. Даг, Майкл Империоли, Винсент Пасторе.

Перевод: Профессиональный (полное дублирование) + оригинал
Субтитры: Нет

Описание: Весь подводный мир встревожен убийством главы главной преступной группировки акул и, надо же, на месте преступления находят ничего не подозревающего малька Оскара! Всю жизнь Оскар мечтал быть сильным и знаменитым, и вот ему представился прекрасный случай воспользоваться чужой славой. Но очень скоро Оскар понимает, что он натворил, взяв титул «Гроза Акул»…

IMDB: 5.9/10 (37 932)
КиноПоиск: 7.092 (6 355)

Знаете ли вы, что...:
▼- Некоторые сцены фильма актёры озвучивали совместно - это редкая практика при создании мультфильмов.
- Героев мультфильма сделали очень похожими на актёров, которые их озвучивали.

MediaInfo
▼Z:HD VideoPodvodnaya.bratva.2004.H264.HDTVRip.mkv
General
Complete name : Z:HD VideoPodvodnaya.bratva.2004.H264.HDTVRip.mkv
Format : Matroska
File size : 4.59 GiB
Duration : 1h 25mn
Overall bit rate : 7 654 Kbps
Encoded date : UTC 2005-04-05 08:36:43
Writing application : mkvmerge v2.1.0 (Another Place To Fall) built on Aug 19 2007 13:40:07
Writing library : libebml v0.7.7 + libmatroska v0.8.1
Video #1
ID : 1
Format : AVC
Format/Info : Advanced Video Codec
Format profile : [email protected]
Format settings, CABAC : Yes
Format settings, ReFrames : 8 frames
Muxing mode : Container [email protected]
Codec ID : V_MPEG4/ISO/AVC
Duration : 1h 25mn
Bit rate : 6 734 Kbps
Width : 1 920 pixels
Height : 1 072 pixels
Display aspect ratio : 16:9
Frame rate : 25.000 fps
Resolution : 24 bits
Colorimetry : 4:2:0
Scan type : Progressive
Bits/(Pixel*Frame) : 0.131
Stream size : 4.04 GiB (88%)
Language : English
Audio #2
ID : 2
Format : AC-3
Format/Info : Audio Coding 3
Codec ID : A_AC3
Duration : 1h 25mn
Bit rate mode : Constant
Bit rate : 384 Kbps
Channel(s) : 6 channels
Channel positions : Front: L C R, Surround: L R, LFE
Sampling rate : 48.0 KHz
Stream size : 236 MiB (5%)
Language : Russian
Audio #3
ID : 3
Format : AC-3
40bc73432b53a585a6a0cd1dd0bbd88f54b28d3fПодводная братва / Shark Tale (Бибо Бержерон, Вики Дженсон, Комедия, семейный, мультфильм, 2004) [HDTVRip 1080p, Дублированный + оригинал] Подводная братва / Shark Tale (Бибо Бержерон, Вики Дженсон, Комедия, семейный, мультфильм, 2004) [HDTVRip 1080p, Дублированный + оригинал] " />

Аплоадер: Админ, дата: 26-03-2010, 12:12, торрент скачан: 359 раз

Понравилась раздача? Посмотрите эти:
  • Дорога на Эльдорадо / The Road to El Dorado (Бибо Бержерон, Уилл Финн, Дон ...
  • Родительский беспредел / Parental Guidance (Энди Фикмен, Комедия, семейный, ...
  • Подводная Братва / Shark Tale (KnowWonder/ 2004/ RUS/ Лицензия)
  • История дельфина / Dolphin Tale (Чарльз Мартин Смит, драма, семейный, 2011) ...
  • Дорога на Эльдорадо / The Road to El Dorado(Бибо Бержерон, Уилл Финн, Дон П ...
  • Дорога на Эльдорадо / The Road to El Dorado (Бибо Бержерон, Уилл Финн, Муль ...
  • Шрэк (Шрек): Квадрология / Shrek: Quadrilogy (Эндрю Адамсон , Вики Дженсон ...
  • Подводная братва / Shark Tale (Бибо Бержерон, Вики Дженсон, Роб Леттерман, ...
  • Приготовление и начало / Prep And Landing (Кевин Детерс, мультфильм, коротк ...
  • Геркулес / Hercules (Рон Клементс, Джон Маскер, мультфильм, мюзикл, фэнтези ...
  • Монстр в Париже / Un monstre à Paris (Бибо Бержерон, мультфильм, фэнтези, к ...
  • [3D] Монстр в Париже / A Monster in Paris (Бибо Бержерон / Bibo Bergeron, М ...
  • Дорога на Эльдорадо / The Road to El Dorado (Бибо Бержерон, Уилл Финн, Дон ...
  • Бобик в гостях у Барбоса ( Владимир Попов, Мультфильм, Короткометражка, 197 ...
  • Кунг-фу Панда 2 / Kung Fu Panda 2 (Дженнифер Ю, мультфильм, боевик, комедия ...
  • Шрек: Квадрология / Shrek: Quadrilogy (Эндрю Адамсон, Вики Дженсон, Келли Э ...
  • Подводная братва / DreamWorks Shark Tale[ ActivisioN, arcade, 2004]
  • Подводная братва / Shark Tale // Анимационный, Комедия / 2004 / DVDRip от H ...
  • Подводная братва / Shark Tale (Бибо Бержерон / Bibo Bergeron, Вики Дженсон ...
  • Подводная Братва / Акулья история / Shark Tale (Вики Дженсон, Комедия, семе ...
  • Монстр в Париже / Un monstre à Paris (Бибо Бержерон, мультфильм, фэнтези, к ...
  • Монстр в Париже / Un monstre à Paris (Бибо Бержерон, Мультфильм, 2011) [DVD ...
  • Монстр в Париже / Un monstre à Paris (Бибо Бержерон, мультфильм, фэнтези, к ...
  • Дорога на Эльдорадо / The Road to El Dorado (Бибо Бержерон, Уилл Финн, Дон ...
  • [3D] Монстр в Париже 3D / Un monstre a Paris 3D (Бибо Бержерон, Мультфильм, ...
  • Информация
    Посетители, находящиеся в группе Гости, не могут оставлять комментарии к данной публикации.