вход на сайт

Имя пользователя :
Пароль :

Восстановление пароля Регистрация
Смурфики 2 / The Smurfs 2 (Раджа Госнелл, мультфильм, фэнтези, комедия, семейный, 2013) [BDRip 1080p, Дублированный, Оригинал (Английский), субтитры]
Рейтинг:
(голосов: 1)



[img]{THEME}/images/logopost.png[/img]



Смурфики 2 / The Smurfs 2
«Увидеть Париж и... осмурфеть!»

Год выпуска: 2013
Страна: США
Производство: Columbia Pictures
Жанр: мультфильм, фэнтези, комедия, семейный

Режиссёр: Раджа Госнелл
В ролях: Хэнк Азария, Нил Патрик Харрис, Брендан Глисон, Джейма Мейс, Джонатан Уинтерс, Кэти Перри, Кристина Риччи, Дж.Б. Смув, Джордж Лопес, Антон Ельчин

Перевод: Дублированный, Оригинал (Английский)
Субтитры: English, Russian

Описание: Гаргамел создаёт Хакуса и Векси, как две капли воды похожую на смурфиков злобную парочку, надеясь всё-таки обрести магическую силу. Когда он узнаёт, что лишь настоящий смурф может дать ему то, что он хочет, и лишь Смурфетта способна превратить Хакуса и Векси в настоящих смурфов, Гаргамел похищает Смурфетту и берёт её с собой в Париж, планируя сделать её своей прислужницей. Но смурфики — Папа, Растяпа, Смельчак, Ворчун, Красавчик, Благоразумник — и их друзья из Нью-Йорка этого так не оставят. Тем более что к ним присоединился новорождённый Голубчик.



премьера (мир):28 июля 2013
премьера (РФ):1 августа 2013, «WDSSPR»


Качество: BDRip 1080p
Продолжительность: 01:44:54

Формат: MKV
Видео кодек: H.264
Аудио кодек: AC3, DTS
Видео: 1920x1036 (1.85:1), 23,976 fps, H.264 ~10 400 kbps avg, 0.218 bit/pixel
Аудио#1: 48 kHz, AC3, 6 ch, ~640.00 kbps avg Дублированный
Аудио#2: 48 kHz, DTS, 6 ch, ~1509.00 kbps avg kbps avg English
Media Info ▼
Формат : Matroska
Версия формата : Version 2
Размер файла : 9,65 Гбайт
Продолжительность : 1 ч. 44 м.
Общий поток : 13,2 Мбит/сек
Дата кодирования : UTC 2013-11-14 07:34:49
Программа кодирования : mkvmerge v6.3.0 (You cant stop me!) built on Jun 28 2013 20:09:41
Библиотека кодирования : libebml v1.3.0 + libmatroska v1.4.0

Видео
Идентификатор : 1
Формат : AVC
Формат/Информация : Advanced Video Codec
Профиль формата : [email protected]
Параметр CABAC формата : Да
Параметр ReFrames формата : 5 кадров
Идентификатор кодека : V_MPEG4/ISO/AVC
Продолжительность : 1 ч. 44 м.
Битрейт : 10,4 Мбит/сек
Ширина : 1920 пикселей
Высота : 1036 пикселей
Соотношение сторон : 1,85:1
Режим частоты кадров : Постоянный
Частота кадров : 23,976 кадра/сек
Цветовое пространство : YUV
Субдискретизация насыщенности : 4:2:0
Битовая глубина : 8 бит
Тип развёртки : Прогрессивная
Бит/(Пиксели*Кадры) : 0.218
Размер потока : 7,42 Гбайт (77%)
Библиотека кодирования : x264 core 138 r2358 9e941d1
Настройки программы : cabac=1 / ref=5 / deblock=1:-3:-3 / analyse=0x3:0x113 / me=umh / subme=11 / psy=1 / psy_rd=1.05:0.10 / mixed_ref=1 / me_range=48 / chroma_me=1 / trellis=2 / 8x8dct=1 / cqm=0 / deadzone=21,11 / fast_pskip=0 / chroma_qp_offset=-2 / threads=18 / lookahead_threads=1 / sliced_threads=0 / nr=0 / decimate=1 / interlaced=0 / bluray_compat=0 / constrained_intra=0 / bframes=6 / b_pyramid=2 / b_adapt=2 / b_bias=0 / direct=3 / weightb=1 / open_gop=0 / weightp=2 / keyint=250 / keyint_min=23 / scenecut=40 / intra_refresh=0 / rc_lookahead=40 / rc=2pass / mbtree=0 / bitrate=10376 / ratetol=2.0 / qcomp=0.70 / qpmin=0 / qpmax=69 / qpstep=4 / cplxblur=20.0 / qblur=0.5 / vbv_maxrate=40000 / vbv_bufsize=30000 / nal_hrd=none / ip_ratio=1.40 / pb_ratio=1.30 / aq=2:1.00
Язык : English
Default : Да
Forced : Нет

Аудио #1
Идентификатор : 2
Формат : AC-3
Формат/Информация : Audio Coding 3
Расширение режима : CM (complete main)
Параметр Endianness формата : Big
Идентификатор кодека : A_AC3
Продолжительность : 1 ч. 44 м.
Вид битрейта : Постоянный
Битрейт : 640 Кбит/сек
Каналы : 6 каналов
Расположение каналов : Front: L C R, Side: L R, LFE
Частота : 48,0 КГц
Битовая глубина : 16 бит
Метод сжатия : С потерями
Размер потока : 480 Мбайт (5%)
Язык : Russian
Default : Да
Forced : Нет

Аудио #2
Идентификатор : 4
Формат : DTS
Формат/Информация : Digital Theater Systems
Режим : 16
Параметр Endianness формата : Big
Идентификатор кодека : A_DTS
Продолжите
4a076d7374f9f53718885185b4d6945d09ff62daСмурфики 2 / The Smurfs 2 (Раджа Госнелл, мультфильм, фэнтези, комедия, семейный, 2013) [BDRip 1080p, Дублированный, Оригинал (Английский), субтитры] Смурфики 2 / The Smurfs 2 (Раджа Госнелл, мультфильм, фэнтези, комедия, семейный, 2013) [BDRip 1080p, Дублированный, Оригинал (Английский), субтитры] " />

Аплоадер: Админ, дата: 14-11-2013, 17:07, торрент скачан: 359 раз

Понравилась раздача? Посмотрите эти:
  • Мэрайа Мунди и шкатулка Мидаса / The Adventurer: The Curse of the Midas Box ...
  • Джобс: Империя соблазна / jOBS (Джошуа Майкл Штерн, драма, биография, 2013) ...
  • Одноклассники 2 / Grown Ups 2 (Деннис Дуган, Комедия, 2013) [BDRip-AVC, Про ...
  • Одноклассники 2 / Grown Ups 2 (Деннис Дуган, комедия, 2013) [BDRip 1080p, Д ...
  • Погнали! / Getaway (Кортни Соломон, боевик, криминал, 2013) [BDRip 1080p, П ...
  • Смурфики 2 / The Smurfs 2 (Раджа Госнелл, Мультфильм, фэнтези, комедия, сем ...
  • Смурфики 2 / The Smurfs 2 (Раджа Госнелл, Мультфильм, фэнтези, комедия, сем ...
  • [3D] Смурфики 2 / The Smurfs 2 (Раджа Госнелл, Мультфильм, Фэнтези, Комедия ...
  • [3D] Смурфики 2 / The Smurfs 2 (Раджа Госнелл, Мультфильм, Фэнтези, Комедия ...
  • Смурфики 2 / The Smurfs 2 (Раджа Госнелл, Мультфильм, фэнтези, комедия, сем ...
  • Смурфики 2 / The Smurfs 2 (Раджа Госнелл, мультфильм, фэнтези, комедия, сем ...
  • Смурфики 2 / The Smurfs 2 (Раджа Госнелл, мультфильм, фэнтези, комедия, сем ...
  • Византия / Byzantium (Нил Джордан, Фэнтези, триллер, драма, 2012) [BDRip 10 ...
  • Мальчишник: Часть III / The Hangover Part III (Тодд Филлипс, комедия, 2013) ...
  • Гадкий я 2 / Despicable Me 2 (Пьер Соффин, Крис Рено, мультфильм, фантастик ...
  • Заклятие / The Conjuring (Джеймс Ван, ужасы, триллер, 2013) [BDRip 720р, Ду ...
  • Заклятие / The Conjuring (Джеймс Ван, ужасы, триллер, 2013) [BDRip 1080p, Д ...
  • Ворон / The Raven (Джеймс МакТиг, Триллер, детектив, 2012) [BDRip 1080p, Ду ...
  • Смурфики / The Smurfs (Раджа Госнелл, мультфильм, фэнтези, комедия, приключ ...
  • Смурфики / The Smurfs (Раджа Госнелл, мультфильм, фэнтези, комедия, приключ ...
  • Смурфики / The Smurfs (Раджа Госнелл, Мультфильм, 2011) [BDRip - AVC, Дубля ...
  • [3D] Смурфики 3D / The Smurfs 3D (Раджа Госнелл, Мультфильм, 2011) [BDRip 1 ...
  • Смурфики / The Smurfs (Раджа Госнелл, мультфильм, фэнтези, комедия, приключ ...
  • Монстры на каникулах / Hotel Transylvania (Геннадий Тартаковский, мультфиль ...
  • [Тизер] Смурфики 2 / The Smurfs 2 (Раджа Госнелл, мультфильм, фэнтези, коме ...
  • Информация
    Посетители, находящиеся в группе Гости, не могут оставлять комментарии к данной публикации.