вход на сайт

Имя пользователя :
Пароль :

Восстановление пароля Регистрация
Питер Пэн 2: Возвращение в Нетландию / Return to Never Land (Робин Бадд, Донован Кук / мультфильм, фэнтези, приключения, семейный / 2002) [HDTVRip 720p, Профессиональный (полное дублирование) + Профессиональный (многоголосый, закадровый) + Оригинал]
Рейтинг:
(голосов: 1)



[img]{THEME}/images/logopost.png[/img]



• Питер Пэн 2: Возвращение в Нетландию / Return to Never Land •
Год выпуска: 2002г.
Страна: США, Канада, Австралия
Производство: DisneyToon Studios, Walt Disney Animation Australia, Walt Disney Animation Canada
Жанр: мультфильм, фэнтези, приключения, семейный
Режиссёр: Робин Бадд, Донован Кук
Роли озвучивали:: Харриет Оуэн (Jane / Young Wendy), Блэйн Уивер (Peter Pan), Кори Бертон (Captain Hook), Джефф Беннетт (Smee / Pirates), Кэт Сауси (Wendy Darling), Эндрю МакДана (Danny), Роджер Рис (Edward), Спенсер Бреслин (Cubby), Брэдли Пирс (Nibs), Куинн Бесвик (Slightly), Аарон Спанн (Twins), Дэн Кастелланета (Additional Voice).
Роли дублировали:: Виктория Слуцкая (Jane), Роман Умаров (Peter Pan), Виктор Костецкий (Captain Hook), Юрий Герцман (Smee / Pirates), Александра Кожевникова (Wendy Darling), Юлия Рудина, Федор Машанов (Danny), Станислав Концевич (Edward), Алексей Решетников, Иван Забашта (Nibs), Артем Сергеев, Александр Буров (Twins).
Перевод: Профессиональный (полное дублирование) + Профессиональный (многоголосый, закадровый) + Оригинал (англоязычная звуковая дорожка)
Субтитры: Отсутствуют
Описание:
Венди выросла, теперь у неё свои собственные дети и каждый вечер она рассказывает им истории про Питера Пэна, мальчика, отказавшегося становиться взрослым. Упрямая 12-летняя дочь Венди, Джейн, не имеет ни малейшего желания слушать всю эту ерунду.
Именно поэтому Капитан Крюк использует девочку в качестве заложника в войне против своего главного врага. Питер Пэн, Тинкер Белл и Потерянные Мальчики прибывают к ней на помощь; однако, даже они не могут заставить поверить Джейн в волшебный мир. Если она не верит, то значит она не может летать, а другого пути для возвращения домой нет.
Всё усугубляется тем, что без веры Джейн в фей, Тинкер Белл может умереть. Когда фея медленно начинает исчезать, Питер предпринимает всё возможное, чтобы спасти девочку от безжалостного Капитана Крюка и доказать ей, что с верой в волшебство и крепкой дружбой нет ничего невозможного.

Качество: HDTVRip 720p
Продолжительность: 01:12:33

Формат: MKV
Видео кодек: AVC
Аудио кодек: AC-3
Видео: 1280x720 (1.77:1), 23.976 fps, 4 495 kbps avg, 0.203 bit/pixel
Аудио#1: AC-3, 48 kHz, 6 ch, 384 kbps avg (DUB)
Аудио#2: AC-3, 48 kHz, 6 ch, 384 kbps avg (MVO)
Аудио#3: AC-3, 48 kHz, 6 ch, 448 kbps avg (RUS)
MediaInfo ▼TextGeneral
Video
ID : 1
Format : AVC
Format/Info : Advanced Video Codec
Format profile : [email protected]
Format settings, CABAC : Yes
Format settings, ReFrames : 3 frames
Codec ID : V_MPEG4/ISO/AVC
Duration : 1h 12mn
Bit rate mode : Variable
Bit rate : 4 495 Kbps
Maximum bit rate : 40.0 Mbps
Width : 1 280 pixels
Height : 720 pixels
Display aspect ratio : 16:9
Frame rate : 23.976 fps
Color space : YUV
Chroma subsampling : 4:2:0
Bit depth : 8 bits
Scan type : Progressive
Bits/(Pixel*Frame) : 0.203
Stream size : 2.28 GiB (77%)
Title : Return.to.Never.Land.2002.HDTV.720p.x264.DualRus.Eng
Writing library : VoLoNa by CMEGroup
Encoding settings : Encoded / optimized / using / HQ / profiles / at / CMEGroup
Language : English

Audio #1
ID : 2
Format : AC-3
Format/Info : Audio Coding 3
Mode extension : CM (complete main)
Codec ID : A_AC3
Duration : 1h 12mn
Bit rate mode : Constant
Bit rate : 384 Kbps
Channel(s) : 6 channels
Channel positions : Front: L C R, Side: L R, LFE
Sampling rate : 48.0 KHz
Bit depth : 16 bits
Compression mode : Lossy
Stream size : 199 MiB (7%)
Title : Russian - DUB
Language : Russian

Audio #2
ID : 3
Format : AC-3
Format/Info : Audio Coding 3
Mode extension : CM (complete main)
Codec ID : A_AC3
Duration : 1h 12mn
Bit rate mode : Constant
Bit rate : 384 Kbps
Channel(s) : 6 channels
Channel positions : Front: L C R, Side: L R, LFE
Sampling rate : 48.0 KHz
Bit depth : 16 bits
Compression mode : Lossy
Stream size : 199 MiB (7%)
Title : Russian - MVO
Language : Russian

Audio #3
ID : 4
Format : AC-3
Format/Info : Audio Coding 3
M
8658363635e0cca153ee3af97714bb1e6291aa63Питер Пэн 2: Возвращение в Нетландию / Return to Never Land (Робин Бадд, Донован Кук / мультфильм, фэнтези, приключения, семейный / 2002) [HDTVRip 720p, Профессиональный (полное дублирование) + Профессиональный (многоголосый, закадровый) + Оригинал] Питер Пэн 2: Возвращение в Нетландию / Return to Never Land (Робин Бадд, Донован Кук / мультфильм, фэнтези, приключения, семейный / 2002) [HDTVRip 720p, Профессиональный (полное дублирование) + Профессиональный (многоголосый, закадровый) + Оригинал] " />

Аплоадер: Админ, дата: 8-03-2011, 09:44, торрент скачан: 359 раз

Понравилась раздача? Посмотрите эти:
  • Богатенький Ричи / Ri¢hie Ri¢h / Richie Rich (Дональд Питри, комедия, семей ...
  • Чемпионат Англии 2013-14 / 3-й тур / Разогрев / НТВ+ [31.08.2013, 720p, x2 ...
  • Журнал Лиги Чемпионов 2013-14 / НТВ+ [31.08.2013, 720p, x264, RU, HDTVRip]
  • Чемпионат Италии 2013-14 / 2-й тур / Preview / НТВ+ [30.08.2013, 720p, x26 ...
  • Чемпионат Германии 2013-14 / 4-й тур / Preview / НТВ+ [30.08.2013, 720p, x2 ...
  • Чемпионат Испании 2013-14 / 3-й тур / Preview / НТВ+ [30.08.2013, 720p, x26 ...
  • Чемпионат Испании 2013-14 / 2-й тур / Preview / НТВ+ [23.08.2013, 720p, x2 ...
  • Чемпионат Германии 2013-14 / 3-й тур / Preview / НТВ+ [23.08.2013, 720p, x2 ...
  • Чемпионат Италии 2013-14 / 1-й тур / Preview / НТВ+ [23.08.2013, 720p, x264 ...
  • Чемпионат Англии 2013-14 / 2-й тур / Preview / НТВ+ [23.08.2013, 720p, x264 ...
  • Чемпионат Англии 2013-14 / 1-й тур / Обзор Матчей / НТВ+ [20.08.2013, 720p, ...
  • Чемпионат Англии 2013-14 / 1-й тур / Preview / НТВ+ [16.08.2013, 720p, x26 ...
  • Нубы / Noobz (Блейк Фриман, Комедия, 2012) [BDRemux 1080p, Профессиональный ...
  • Питер Пэн 2: В Нетландии / Peter Pan: in Return to Neverland (Робин Бадд, Д ...
  • Футурама: Зверь с миллиардом спин / Futurama: The Beast with a Billion Back ...
  • Геркулес / Hercules (Рон Клементс, Джон Маскер, Мультфильм, 1997 г.)[HDTVRi ...
  • Один Дома / Home Alone (Крис Коламбус, комедия, приключения, семейный, 1990 ...
  • Чаббчаббы спасают Рождество / The Chubbchubbs Save Xmas (Коуди Камерон, мул ...
  • Похищенная / A Lonely Place to Die (Джулиан Джилби, триллер, криминал, прик ...
  • Пираты! Банда неудачников / The Pirates! Band of Misfits (Питер Лорд, Джефф ...
  • Притворись моей женой / Just go with it (Деннис Дуган, мелодрама, комедия, ...
  • Рапунцель: Счастлива навсегда / Tangled Ever After ( Нэйтан Грено, Байрон Х ...
  • Чемпионат Европы 2012 / Финал / Испания- Италия / Спорт 1 HD [ФФутбол, 01.0 ...
  • Mick Jagger / SNL [2012, Rock, HDTV 1080i]
  • [Дилогия] Питер Пэн / Peter Pan (Клайд Джероними, Робин Бадд, Донован Кук ...
  • Информация
    Посетители, находящиеся в группе Гости, не могут оставлять комментарии к данной публикации.