вход на сайт

Имя пользователя :
Пароль :

Восстановление пароля Регистрация
Бункер / La cara oculta (Андрес Баиз, триллер, 2011) [BDRip 1080p, Профессиональный (многоголосый, закадровый) + Оригинал (Испанский) + Sub]
Рейтинг:
(голосов: 1)



[img]{THEME}/images/logopost.png[/img]



• Бункер / La cara oculta •
«Тебе никогда не откроют дверь»

Год выпуска: 2011
Страна: Колумбия, Испания
Производство: Fox International Productions (FIP)
Жанр: Триллер

Режиссёр: Андрес Баиз
В ролях: Клара Лаго, Ким Гутьеррес, Мартина Гарсия, Хуан Альфонсо Баптиста, Марсела Бенхумеа, Марсела Мар Умберто Дорадо, Хосе Луис Гарсиа, Марсела Гардеазабаль, Мозад, Мария Соледад Родригез


Перевод: Профессиональный (многоголосый, закадровый) + Оригинал (Испанский)
Субтитры: Русские + Английские

Описание: Официантка Фабиана знакомится с одним из случайных посетителей, переживающим сложный период в жизни. Между ними вспыхивает страсть. Для девушки все кажется идеальным: ее любимый работает дирижером оркестра филармонии в Боготе и владеет огромным особняком. Однако вскоре появляются непредвиденные сложности. Полиция расследует таинственное исчезновения бывшей невесты и подруги дирижера, а сама девушка начинает чувствовать, что в доме происходит нечто странное.Дата премьеры (мир): 16 сентября 2011
Дата премьеры (РФ): 8 ноября 2012, «Top Film Distribution»

Релиз от:

Качество: BDRip 1080p | Сэмпл
Продолжительность: 01:36:31


Формат: MKV
Видео кодек: H.264
Аудио кодек: AC3
Видео: H.264, 1920x816 (2,35:1), 24.000 fps, 11.5 Mbps, 0.305 bit/pixel
Аудио#1: 48 kHz, AC3, 6ch, ~448.00 kbps avg | Профессиональный (многоголосый, закадровый)
Аудио#2: 48 kHz, AC3, 6ch, ~640.00 kbps avg |Оригинал (Испанский)

"Mediainfo:" ▼TextGeneral
Format : Matroska
Format version : Version 2
File size : 8.46 GiB
Duration : 1h 36mn
Overall bit rate : 12.5 Mbps
Movie name : IRONCLUB
Encoded date : UTC 2013-01-18 13:26:26
Writing application : mkvmerge v5.2.0 (I cant explain) built on Dec 18 2011 18:12:03
Writing library : libebml v1.2.3 + libmatroska v1.3.0

Video
ID : 1
Format : AVC
Format/Info : Advanced Video Codec
Format profile : [email protected]
Format settings, CABAC : Yes
Format settings, ReFrames : 5 frames
Codec ID : V_MPEG4/ISO/AVC
Duration : 1h 36mn
Bit rate : 11.5 Mbps
Width : 1 920 pixels
Height : 816 pixels
Display aspect ratio : 2.35:1
Frame rate : 24.000 fps
Color space : YUV
Chroma subsampling : 4:2:0
Bit depth : 8 bits
Scan type : Progressive
Bits/(Pixel*Frame) : 0.305
Stream size : 7.55 GiB (89%)
Title : The.Hidden.Face.2011.1080p.BluRay.x264.DTS-HDChina
Writing library : x264 core 120 r2164 da19765
Encoding settings : cabac=1 / ref=5 / deblock=1:-3:-3 / analyse=0x3:0x133 / me=umh / subme=10 / psy=1 / psy_rd=1.00:0.00 / mixed_ref=1 / me_range=48 / chroma_me=1 / trellis=2 / 8x8dct=1 / cqm=0 / deadzone=21,11 / fast_pskip=1 / chroma_qp_offset=-2 / threads=12 / sliced_threads=0 / nr=0 / decimate=0 / interlaced=0 / bluray_compat=0 / constrained_intra=0 / bframes=7 / b_pyramid=2 / b_adapt=2 / b_bias=0 / direct=3 / weightb=1 / open_gop=0 / weightp=2 / keyint=250 / keyint_min=24 / scenecut=40 / intra_refresh=0 / rc_lookahead=60 / rc=2pass / mbtree=0 / bitrate=11462 / ratetol=1.0 / qcomp=0.60 / qpmin=0 / qpmax=69 / qpstep=4 / cplxblur=20.0 / qblur=0.5 / vbv_maxrate=30000 / vbv_bufsize=30000 / nal_hrd=none / ip_ratio=1.50 / pb_ratio=1.30 / aq=1:1.00
Language : English
Default : Yes
Forced : Yes

Audio #1
ID : 2
Format : AC-3
Format/Info : Audio Coding 3
Mode extension : CM (complete main)
Codec ID : A_AC3
Duration : 1h 36mn
Bit rate mode : Constant
Bit rate : 448 Kbps
Channel(s) : 6 channels
Channel positions : Front: L C R, Side: L R, LFE
Sampling rate : 48.0 KHz
Bit depth : 16 bits
Compression mode : Lossy
Stream size : 309 MiB (4%)
Title : DD 5.1 @ 448 kbps - MVO, R5
Language : Russian
Default : Yes
Forced : Yes

Audio #2
ID : 3
Format : AC-3
Format/Info : Audio Coding 3
Mode extension : CM (complete main)
Codec ID : A_AC3
Duration : 1h 36mn
Bit rate mode : Constant
Bit rate : 640 Kbps
Channel(s) : 6 channels
Channel positions : Front: L C R, Side: L R, LFE
Sampling rate : 48.0 KHz
Bit depth : 16 bits
Compression mode : Lossy
Stream
625038a771a7459f40f85577bb7f6cc83bb06aa2Бункер / La cara oculta (Андрес Баиз, триллер, 2011) [BDRip 1080p, Профессиональный (многоголосый, закадровый) + Оригинал (Испанский) + Sub] Бункер / La cara oculta (Андрес Баиз, триллер, 2011) [BDRip 1080p, Профессиональный (многоголосый, закадровый) + Оригинал (Испанский) + Sub] " />

Аплоадер: Админ, дата: 20-01-2013, 03:14, торрент скачан: 359 раз

Понравилась раздача? Посмотрите эти:
  • Пастырь / Priest (Скотт Чарльз Стюарт, ужасы, фантастика, боевик, триллер, ...
  • Отдел 13 / Diamant 13 (Гайллз Бэхат, Боевик, триллер, криминал, 2009) [BDRi ...
  • Гость / The Caller (Мэттью Паркхилл, триллер, детектив, 2011) [BDRip 720p, ...
  • Конец света / Fin (Хорхе Торрегросса, триллер, 2012) [BDRip-AVC, Профессион ...
  • Джекпот / Arme Riddere (Магнус Мартенс, Боевик, комедия, криминал, 2011) [B ...
  • Конец света / Fin (Хорхе Торрегросса, триллер, 2012) [BDRip 720p, Профессио ...
  • Убить по расписанию / Ticking Clock (Эрни Барбараш, фантастика, боевик, три ...
  • Шелуха / Husk (Бретт Симмонс, ужасы, триллер, 2011) [BDRip 720p, Профессион ...
  • Похищенная / A Lonely Place to Die (Джулиан Джилби, триллер, криминал, прик ...
  • Поворот не туда 4 / Wrong Turn 4 (Деклан О’Брайэн, ужасы, боевик, детектив, ...
  • Бункер / La cara oculta (Андрес Баиз, Триллер, 2011) [BDRip-AVC, Профессион ...
  • Восстание планеты обезьян / Rise of the Planet of the Apes (Руперт Уайатт, ...
  • Профессионал / Killer Elite (Гэри МакКендри, Боевик, Триллер, Криминал, 201 ...
  • Семь футов / Seven Below (Кевин Каррауэй, Ужасы, триллер, 2012) [BDRip 720p ...
  • Красные огни / Red Lights (Родриго Кортес, Ужасы, триллер, драма, 2012) [BD ...
  • Люди как мы / People Like Us (Алекс Куртцман, Драма, 2012) [BDRip 1080p, Пр ...
  • Mylene Farmer / Du Temps [2011, Pop, HDTVRip]
  • Mylene Farmer / Bleu Noir [2011, Pop, HDTVRip]
  • Бункер / La cara oculta (Андрес Баиз, триллер, 2011) [HDRip-AVC, Профессион ...
  • Бункер / La cara oculta (Андрес Баиз, триллер, 2011) [DVD5, Профессиональны ...
  • Бункер / La cara oculta (Андрес Баиз, триллер, 2011) [BDRip 720p, Профессио ...
  • PBS: Природа – Гималаи / PBS: Nature – The Himalayas (Крис Морган, Докумен ...
  • Бункер / La cara oculta (Андрес Баиз, триллер, 2011) [HDRip, Профессиональн ...
  • Бункер / La cara oculta (Андрес Баиз, триллер, 2011) [HDRip, Профессиональн ...
  • Бункер / La cara oculta (Андрес Баиз, триллер, 2011) [HDRip, Профессиональ ...
  • Информация
    Посетители, находящиеся в группе Гости, не могут оставлять комментарии к данной публикации.