вход на сайт

Имя пользователя :
Пароль :

Восстановление пароля Регистрация
Коллекционер 2 / The Collection (Маркус Данстэн, ужасы, боевик, триллер, 2012) [BDRip 1080p, Дублированный + Оригинал + SUB]
Рейтинг:
(голосов: 1)



[img]{THEME}/images/logopost.png[/img]



Коллекционер 2 / The Collection
«Не попади в его коллекцию»
Год выпуска: 2012
Страна: США
Производство: LD Entertainment, Fortress Features
Жанр: ужасы, боевик, триллер

Режиссёр: Маркус Данстэн | Marcus Dunstan
В ролях: Джош Стюарт, Эмма Фитцпатрик, Кристофер МакДональд, Ли Тергесен, Тим Гриффин, Андре Ройо, Рэндолл Арчер, Шеннон Кэйн, Брэндон, Молале, Эрин Вэй

Перевод: Профессиональный (полнное дублирование) + Оригинал (Английский)
Субтитры: softsub (SRT) |Русские

Описание:
Бывалому медвежатнику Аркину чудесным образом удалось выбраться из ловушек, расставленных по дому загадочным маньяком Коллекционером. Аркин был уверен, что он никогда в жизни больше не встретится с Коллекциoнером, но cудьба распоряжается иначе.



Дата премьеры (мир): 21 сентября 2012
Дата премьеры (РФ): 29 ноября 2012, «Каравелла DDC»
Релиз на DVD: 30 января 2013, «Кармен Видео»
Релиз на Blu-Ray: 30 января 2013, «Кармен Видео», «ВС трейд»
Качество: BDRip 1080p | исх. Коллекционер 2 / The Collection (2012) Blu-ray 1080p AVC DTS-HD 5.1
Продолжительность: 01:21:38

Формат: MKV
Видео кодек: H.264
Аудио кодек: DTS
Видео: 1920x804 (2.40:1), 23,976 fps, H.264 ~16 400 kbps avg, 0.443 bit/pixel
Аудио #1: 48 kHz, DTS, 3/2 (L,C,R,l,r) + LFE ch, ~1510.00 kbps avg | Профессиональный (полнное дублирование)
Аудио #2: 48 kHz, DTS, 3/2 (L,C,R,l,r) + LFE ch, ~1510.00 kbps avg | Оригинал (Английский)
MediaInfo ▼General
Unique ID : 251107560493431906239571833138691850911 (0xBCE98E97A8B574DD91EB8ADBBE22429F)
Complete name : Kollekcioner.2.2012.D.BDRip.1080p.IRONCLUB.mkv
Format : Matroska
Format version : Version 2
File size : 11.3 GiB
Duration : 1h 21mn
Overall bit rate : 19.8 Mbps
Movie name : IRONCLUB
Encoded date : UTC 2013-01-26 16:07:07
Writing application : mkvmerge v5.2.0 (I cant explain) built on Dec 18 2011 18:12:03
Writing library : libebml v1.2.3 + libmatroska v1.3.0

Video
ID : 1
Format : AVC
Format/Info : Advanced Video Codec
Format profile : [email protected]
Format settings, CABAC : Yes
Format settings, ReFrames : 5 frames
Codec ID : V_MPEG4/ISO/AVC
Duration : 1h 21mn
Bit rate : 16.4 Mbps
Width : 1 920 pixels
Height : 804 pixels
Display aspect ratio : 2.40:1
Frame rate : 24.000 fps
Color space : YUV
Chroma subsampling : 4:2:0
Bit depth : 8 bits
Scan type : Progressive
Bits/(Pixel*Frame) : 0.443
Stream size : 9.36 GiB (83%)
Title : The Collection 1080p BluRay DTS x264-IRONCLUB
Writing library : x264 core 129 r2245kMod bc13772
Encoding settings : cabac=1 / ref=5 / deblock=1:-3:-3 / analyse=0x3:0x113 / me=umh / subme=11 / psy=1 / fade_compensate=0.00 / psy_rd=1.20:0.00 / mixed_ref=1 / me_range=48 / chroma_me=1 / trellis=2 / 8x8dct=1 / cqm=0 / deadzone=21,11 / fast_pskip=0 / chroma_qp_offset=-2 / threads=12 / lookahead_threads=2 / sliced_threads=0 / nr=0 / decimate=1 / interlaced=0 / bluray_compat=0 / constrained_intra=0 / bframes=9 / b_pyramid=2 / b_adapt=2 / b_bias=0 / direct=3 / weightb=1 / open_gop=0 / weightp=2 / keyint=250 / keyint_min=24 / scenecut=40 / intra_refresh=0 / rc_lookahead=192 / rc=crf / mbtree=0 / crf=18.0000 / qcomp=0.75 / qpmin=0 / qpmax=69 / qpstep=4 / vbv_maxrate=50000 / vbv_bufsize=62500 / crf_max=0.0 / nal_hrd=none / ip_ratio=1.30 / pb_ratio=1.20 / aq=1:0.80
Language : English
Default : Yes
Forced : Yes

Audio #1
ID : 2
Format : DTS
Format/Info : Digital Theater Systems
Codec ID : A_DTS
Duration : 1h 21mn
Bit rate mode : Constant
Bit rate : 1 510 Kbps
Channel(s) : 6 channels
Channel positions : Front: L C R, Side: L R, LFE
Sampling rate : 48.0 KHz
Bit depth : 16 bits
Compression mode : Lossy
Stream size : 882 MiB (8%)
Title : DTS 5.1 @ 1536 kbps
Language : Russian
Default : Yes
Forced : Yes

Audio #2
ID : 3
Format : DTS
Format/Info : Digital Theater Systems
Codec ID : A_DTS
Duration : 1h 21mn
Bit rate mode : Constant
Bit rate : 1 510 Kbps
Channel(s) : 6 channels
Channel positions : Front: L C R, Side: L R, LFE
Sampling rate : 48.0 KHz
Bit depth : 16 bits
Compression mode : Lossy
Stre
c7a7c3ada3f41e7940da0d514a0737636f33ce93Коллекционер 2 / The Collection (Маркус Данстэн, ужасы, боевик, триллер, 2012) [BDRip 1080p, Дублированный + Оригинал + SUB] Коллекционер 2 / The Collection (Маркус Данстэн, ужасы, боевик, триллер, 2012) [BDRip 1080p, Дублированный + Оригинал + SUB] " />

Аплоадер: Админ, дата: 26-01-2013, 23:21, торрент скачан: 359 раз

Понравилась раздача? Посмотрите эти:
  • Коллекционер [Дилогия] / The Collection [Dilogy] (Маркус Данстэн, Ужасы, бо ...
  • Пастырь / Priest (Скотт Чарльз Стюарт, ужасы, фантастика, боевик, триллер, ...
  • Хроника / Chronicle (Джошуа Транк, фантастика, боевик, триллер, драма, 2012 ...
  • Мастер / The Master (Пол Томас Андерсон, Драма, 2012) [BDRip 1080p, Дубляж, ...
  • Коллекционер 2 / The Collection (Маркус Данстэн, Ужасы, боевик, триллер, 20 ...
  • Сайлент Хилл 2 / Silent Hill: Revelation 3D (Майкл Дж. Бассетт, ужасы, трил ...
  • Жизнь Пи / Life Of Pi (Энг Ли, Драма, приключения, 2012) [BDRip 1080p, Проф ...
  • Коллекционер 2 / The Collector (Маркус Данстэн, Ужасы, Боевик, Триллер, 201 ...
  • Коллекционер 2 / The Collection (Маркус Данстэн, Ужасы, боевик, триллер, 20 ...
  • Коллекционер 2 / The Collection (Маркус Данстэн, Ужасы, боевик, триллер, 20 ...
  • Толстяк на ринге / Here Comes the Boom (Фрэнк Корачи, Боевик, комедия, 201 ...
  • Заложница 2 [Театральная версия] / Taken 2 [Theatrical Cut] (Оливье Мегатон ...
  • Анна Каренина / Anna Karenina (Джо Райт, Драма, мелодрама, 2012) [BDRip 108 ...
  • Коллекционер 2 / The Collection (Маркус Данстэн, Ужасы, боевик, триллер, 20 ...
  • Коллекционер 2 / The Collection (Маркус Данстэн, ужасы, боевик, триллер, 20 ...
  • Коллекционер 2 / The Collection (Маркус Данстэн, ужасы, боевик, триллер , 2 ...
  • Коллекционер 2 / The Collection (Маркус Данстэн, ужасы, боевик, триллер , 2 ...
  • Коллекционер 2 / The Collection (Маркус Данстэн, Ужасы, боевик, триллер, 20 ...
  • Профессионал / Killer Elite (Гэри МакКендри, Боевик, Триллер, Криминал, 201 ...
  • Хижина в лесу / The Cabin in the Woods (Дрю Годдард, Ужасы, фантастика, три ...
  • Красные огни / Red Lights (Родриго Кортес, Ужасы, триллер, драма, 2012) [BD ...
  • Коллекционер 2 / The Collection (Маркус Данстэн, ужасы, боевик, триллер, 20 ...
  • Франкенвини / Frankenweenie (Тим Бёртон, мультфильм, ужасы, фантастика, ком ...
  • Коллекционер / The Collector (Маркус Данстэн, Ужасы, триллер, 2009) [BDRip- ...
  • [Трейлер] Коллекционер 2 / The Collection (Маркус Данстэн, ужасы, боевик, т ...
  • Информация
    Посетители, находящиеся в группе Гости, не могут оставлять комментарии к данной публикации.