вход на сайт

Имя пользователя :
Пароль :

Восстановление пароля Регистрация
Монстры на каникулах / Hotel Transylvania (Геннадий Тартаковский, мультфильм, комедия, семейный, 2012) [BDRip 720p, Дублированный + Оригинал + SUB]
Рейтинг:
(голосов: 1)



[img]{THEME}/images/logopost.png[/img]



Монстры на каникулах / Hotel Transylvania
«Будет страшно смешно»
Год выпуска: 2012
Страна: США
Производство: Columbia Pictures, Sony Pictures Animation
Жанр: мультфильм, комедия, семейный

Режиссёр: Геннадий Тартаковский | Genndy Tartakovsky
В ролях: Адам Сэндлер, Энди Сэмберг, Селена Гомес, Кевин Джеймс, Фрэн Дрешер, Стив Бушеми, Молли Шеннон, Дэвид Спейд, Си-Ло, Джон Ловиц

Перевод: Профессиональный (полнное дублирование) + Оригинал (Английский)
Субтитры: softsub (SRT) |Russian (Full), English(Full, SDH)

Описание:
раф Дракула для себя и своей любимой дочки построил хорошо укрытый от посторонних глаз отель, куда монстры со всего света приезжают отдохнуть от семейных забот, повседневной суеты и, конечно… людей. Но вездесущие американские туристы проникают и сюда.



Дата премьеры (мир): 8 сентября 2012
Дата премьеры (РФ): 18 октября 2012, «WDSSPR»
Релиз на DVD: 29 января 2013, «Columbia/Sony»
Релиз на Blu-Ray: 29 января 2013, «Columbia/Sony»
Качество: BDRip 720p | исх. Монстры на каникулах / Hotel Transylvania (2012) Blu-ray CEE 1080p AVC DD 5.1
Продолжительность: 01:31:31

Формат: MKV
Видео кодек: H.264
Аудио кодек: AC3, DTS
Видео: 1280x690 (1,85:1), 23,976 fps, H.264 ~6 324 kbps avg, 0.299 bit/pixel
Аудио #1: 48 kHz, AC3, 3/2 (L,C,R,l,r) + LFE ch, ~640.00 kbps avg | Профессиональный (полнное дублирование)
Аудио #2: 48 kHz, DTS, 3/2 (L,C,R,l,r) + LFE ch, ~1510.00 kbps avg | Оригинал (Английский)
MediaInfo ▼Общее
Полное имя : Monsrty.na.kanikulah.2012.D.BDRip.720p.mkv
Формат : Matroska
Версия формата : Version 4 / Version 2
Размер файла : 5,42 Гбайт
Продолжительность : 1 ч. 31 м.
Общий поток : 8478 Кбит/сек
Дата кодирования : UTC 2010-02-22 21:41:31
Программа кодирования : mkvmerge v5.9.0 (On The Loose) built on Dec 9 2012 15:37:01
Библиотека кодирования : libebml v1.3.0 + libmatroska v1.4.0

Видео
Идентификатор : 1
Формат : AVC
Формат/Информация : Advanced Video Codec
Профиль формата : [email protected]
Параметр CABAC формата : Да
Параметр ReFrames формата : 12 кадров
Идентификатор кодека : V_MPEG4/ISO/AVC
Продолжительность : 1 ч. 31 м.
Битрейт : 6324 Кбит/сек
Ширина : 1280 пикселей
Высота : 690 пикселей
Соотношение сторон : 1,85:1
Частота кадров : 23,976 кадра/сек
Цветовое пространство : YUV
Субдискретизация насыщенности : 4:2:0
Битовая глубина : 8 бит
Тип развёртки : Прогрессивная
Бит/(Пиксели*Кадры) : 0.299
Размер потока : 3,94 Гбайт (73%)
Библиотека кодирования : x264 core 120 r2164+656 2ff844c
Настройки программы : cabac=1 / ref=12 / deblock=1:-3:-3 / analyse=0x3:0x113 / me=umh / subme=10 / psy=1 / fade_compensate=0.00 / psy_rd=1.10:0.15 / mixed_ref=1 / me_range=32 / chroma_me=1 / trellis=2 / 8x8dct=1 / cqm=0 / deadzone=21,11 / fast_pskip=0 / chroma_qp_offset=-2 / threads=12 / sliced_threads=0 / nr=0 / decimate=1 / interlaced=0 / bluray_compat=0 / constrained_intra=0 / fgo=0 / bframes=6 / b_pyramid=2 / b_adapt=2 / b_bias=0 / direct=3 / weightb=1 / open_gop=0 / weightp=2 / keyint=250 / keyint_min=23 / scenecut=40 / intra_refresh=0 / rc_lookahead=40 / rc=2pass / mbtree=0 / bitrate=6324 / ratetol=1.0 / qcomp=0.60 / qpmin=0 / qpmax=69 / qpstep=4 / cplxblur=20.0 / qblur=0.5 / vbv_maxrate=40000 / vbv_bufsize=30000 / nal_hrd=none / ip_ratio=1.40 / pb_ratio=1.30 / aq=1:0.80
Язык : English
Default : Нет
Forced : Нет

Аудио #1
Идентификатор : 2
Формат : AC-3
Формат/Информация : Audio Coding 3
Расширение режима : CM (complete main)
Параметр Endianness формата : Big
Идентификатор кодека : A_AC3
Продолжительность : 1 ч. 31 м.
Вид битрейта : Постоянный
Битрейт : 640 Кбит/сек
Каналы : 6 каналов
Расположение каналов : Front: L C R, Side: L R, LFE
Частота : 48,0 КГц
Битовая глубина : 16 бит
Метод сжатия : С потерями
Размер потока : 419 Мбайт (8%)
Язык : Russian
Default : Да
Forced : Нет

Аудио #2
Идентификатор : 3
Формат : DTS
Формат/Информация : Digital Theater Systems
Идентификатор кодека : A_DTS
Продолжительность : 1 ч. 31 м
e68caa88105167cec38cda904f07e37eb3d0b530Монстры на каникулах / Hotel Transylvania (Геннадий Тартаковский, мультфильм, комедия, семейный, 2012) [BDRip 720p, Дублированный + Оригинал + SUB] Монстры на каникулах / Hotel Transylvania (Геннадий Тартаковский, мультфильм, комедия, семейный, 2012) [BDRip 720p, Дублированный + Оригинал + SUB] " />

Аплоадер: Админ, дата: 26-01-2013, 19:12, торрент скачан: 359 раз

Понравилась раздача? Посмотрите эти:
  • Мэрайа Мунди и шкатулка Мидаса / The Adventurer: The Curse of the Midas Box ...
  • Джобс: Империя соблазна / jOBS (Джошуа Майкл Штерн, драма, биография, 2013) ...
  • Одноклассники 2 / Grown Ups 2 (Деннис Дуган, Комедия, 2013) [BDRip-AVC, Про ...
  • Одноклассники 2 / Grown Ups 2 (Деннис Дуган, комедия, 2013) [BDRip 1080p, Д ...
  • Гадкий я 2 / Despicable Me 2 (Пьер Соффин, Крис Рено, мультфильм, фантастик ...
  • [iPhone, iPod] Монстры на каникулах / Hotel Transylvania (Геннадий Тартаков ...
  • Монстры на каникулах / Hotel Transylvania (Генндий Тартаковский, мультфильм ...
  • Монстры на каникулах / Hotel Transylvania (Генндий Тартаковский, мультфильм ...
  • [3D] Монстры на каникулах / Hotel Transylvania (Геннадий Тартаковский, муль ...
  • Монстры на каникулах / Hotel Transylvania (Генндий Тартаковский, мультфильм ...
  • Монстры на каникулах / Hotel Transylvania (Генндий Тартаковский, Мультфильм ...
  • Монстры на каникулах / Hotel Transylvania (Генндий Тартаковский, Мультфильм ...
  • Монстры на каникулах / Hotel Transylvania (Генндий Тартаковский, мультфильм ...
  • Монстры на каникулах / Hotel Transylvania (Геннадий Тартаковский, мультфиль ...
  • [3D] Монстры на каникулах 3D трейлер / Hotel Transylvania 3D trailer (Геннд ...
  • Переростки / The Inbetweeners (Бен Палмер / Ben Palmer, комедия, 2011) [BDR ...
  • Бедная богатая девочка / Young Adult (Джейсон Райтман, драма, комедия, 2011 ...
  • Монстры на каникулах / Hotel Transylvania (Генндий Тартаковский, Мультфильм ...
  • Монстры на каникулах / Hotel Transylvania (Генндий Тартаковский, Мультфильм ...
  • [Трейлер] Монстры на каникулах / Hotel Transylvania (Генндий Тартаковский, ...
  • Информация
    Посетители, находящиеся в группе Гости, не могут оставлять комментарии к данной публикации.